<?xml version="1.0" standalone="no"?>
<!DOCTYPE svg PUBLIC "-//W3C//DTD SVG 1.1//EN" "http://www.w3.org/Graphics/SVG/1.1/DTD/svg11.dtd" >
<svg xmlns="http://www.w3.org/2000/svg">
<metadata>Generated by IcoMoon</metadata>
<defs>
<font id="lae-icomoon" horiz-adv-x="1024">
<font-face units-per-em="1024" ascent="960" descent="-64" />
<missing-glyph horiz-adv-x="1024" />
<glyph unicode="&#x20;" horiz-adv-x="512" d="" />
<glyph unicode="&#xe900;" glyph-name="like" d="M933.248 624.896c-40 10.496-134.048 10.368-271.616 14.016 6.496 30.016 8 57.088 8 105.152 0 114.816-83.648 215.936-157.632 215.936-52.256 0-95.328-42.72-96-95.264-0.704-64.448-20.64-175.744-128-232.192-7.872-4.16-30.4-15.264-33.696-16.704l1.696-1.44c-16.8 14.496-40.096 25.6-64 25.6h-96c-52.928 0-96-43.072-96-96v-512c0-52.928 43.072-96 96-96h96c38.080 0 69.952 23.008 85.376 55.264 0.384-0.128 1.056-0.32 1.504-0.384 2.112-0.576 4.608-1.184 7.648-1.984 0.576-0.16 0.864-0.224 1.472-0.384 18.432-4.576 53.92-13.056 129.76-30.496 16.256-3.712 102.144-22.016 191.104-22.016h174.944c53.312 0 91.744 20.512 114.624 61.696 0.32 0.64 7.68 15.008 13.696 34.432 4.512 14.624 6.176 35.328 0.736 56.32 34.368 23.616 45.44 59.328 52.64 82.56 12.064 38.112 8.448 66.752 0.064 87.264 19.328 18.24 35.808 46.048 42.752 88.512 4.32 26.304-0.32 53.376-12.448 75.904 18.112 20.352 26.368 45.952 27.328 69.632l0.384 6.688c0.224 4.192 0.416 6.784 0.416 16 0 40.416-28 91.968-90.752 109.888zM224 32c0-17.696-14.304-32-32-32h-96c-17.696 0-32 14.304-32 32v512c0 17.696 14.304 32 32 32h96c17.696 0 32-14.304 32-32v-512zM959.264 494.88c-0.64-15.808-7.264-46.88-63.264-46.88-48 0-64 0-64 0-8.864 0-16-7.168-16-16s7.136-16 16-16c0 0 14.016 0 62.016 0s54.304-39.808 51.2-59.008c-3.968-23.872-15.168-68.992-69.216-68.992-53.984 0-76 0-76 0-8.864 0-16-7.136-16-16 0-8.8 7.136-16 16-16 0 0 38.016 0 63.008 0 54.016 0 49.248-41.184 41.504-65.76-10.208-32.288-16.448-62.24-84.512-62.24-23.008 0-52.192 0-52.192 0-8.864 0-16-7.136-16-16 0-8.8 7.136-16 16-16 0 0 22.176 0 50.176 0 35.008 0 36.64-33.12 32.992-44.992-4-12.992-8.736-22.624-8.928-23.072-9.664-17.44-25.248-27.936-58.24-27.936h-174.944c-87.872 0-175.040 19.936-177.28 20.448-132.928 30.624-139.936 32.992-148.288 35.36 0 0-27.072 4.576-27.072 28.192l-0.224 441.984c0 15.008 9.568 28.576 25.408 33.344 1.984 0.768 4.672 1.6 6.592 2.4 146.176 60.544 190.688 193.28 192 302.272 0.192 15.328 12 32 32 32 33.824 0 93.632-67.904 93.632-151.936 0-75.872-3.072-88.992-29.632-168.064 320 0 317.76-4.608 345.984-12 35.008-10.016 38.016-39.008 38.016-48.992 0-10.976-0.32-9.376-0.736-20.128zM144 128c-26.496 0-48-21.504-48-48s21.504-48 48-48 48 21.504 48 48-21.504 48-48 48zM144 64c-8.8 0-16 7.2-16 16s7.2 16 16 16 16-7.2 16-16-7.2-16-16-16z" />
<glyph unicode="&#xe901;" glyph-name="star-empty, rate, star, favorite, bookmark" d="M1024 562.95l-353.78 51.408-158.22 320.582-158.216-320.582-353.784-51.408 256-249.538-60.432-352.352 316.432 166.358 316.432-166.358-60.434 352.352 256.002 249.538zM512 206.502l-223.462-117.48 42.676 248.83-180.786 176.222 249.84 36.304 111.732 226.396 111.736-226.396 249.836-36.304-180.788-176.222 42.678-248.83-223.462 117.48z" />
<glyph unicode="&#xe902;" glyph-name="eye" d="M512 768c-223.318 0-416.882-130.042-512-320 95.118-189.958 288.682-320 512-320 223.312 0 416.876 130.042 512 320-95.116 189.958-288.688 320-512 320zM764.45 598.296c60.162-38.374 111.142-89.774 149.434-150.296-38.292-60.522-89.274-111.922-149.436-150.296-75.594-48.218-162.89-73.704-252.448-73.704-89.56 0-176.858 25.486-252.452 73.704-60.158 38.372-111.138 89.772-149.432 150.296 38.292 60.524 89.274 111.924 149.434 150.296 3.918 2.5 7.876 4.922 11.86 7.3-9.96-27.328-15.41-56.822-15.41-87.596 0-141.382 114.616-256 256-256 141.382 0 256 114.618 256 256 0 30.774-5.452 60.268-15.408 87.598 3.978-2.378 7.938-4.802 11.858-7.302v0zM512 544c0-53.020-42.98-96-96-96s-96 42.98-96 96 42.98 96 96 96 96-42.982 96-96z" />
<glyph unicode="&#xe903;" glyph-name="bubble, comment, chat, talk" d="M512 736c8.832 0 16-7.168 16-16s-7.2-16-16-16c-170.464 0-320-89.728-320-192 0-8.832-7.168-16-16-16s-16 7.168-16 16c0 121.408 161.184 224 352 224zM512 896c-282.784 0-512-171.936-512-384 0-132.064 88.928-248.512 224.256-317.632 0-0.864-0.256-1.44-0.256-2.368 0-57.376-42.848-119.136-61.696-151.552 0.032 0 0.064 0 0.064 0-1.504-3.52-2.368-7.392-2.368-11.456 0-16 12.96-28.992 28.992-28.992 3.008 0 8.288 0.8 8.16 0.448 100 16.384 194.208 108.256 216.096 134.88 31.968-4.704 64.928-7.328 98.752-7.328 282.72 0 512 171.936 512 384s-229.248 384-512 384zM512 192c-29.344 0-59.456 2.24-89.472 6.624-3.104 0.512-6.208 0.672-9.28 0.672-19.008 0-37.216-8.448-49.472-23.36-13.696-16.672-52.672-53.888-98.72-81.248 12.48 28.64 22.24 60.736 22.912 93.824 0.192 2.048 0.288 4.128 0.288 5.888 0 24.064-13.472 46.048-34.88 56.992-118.592 60.544-189.376 157.984-189.376 260.608 0 176.448 200.96 320 448 320 246.976 0 448-143.552 448-320s-200.992-320-448-320z" />
<glyph unicode="&#xe904;" glyph-name="arrow-left" d="M592 672c-12.512 0-23.776-4.896-32.352-12.736l-0.096 0.16-192-176.032c-9.888-9.12-15.552-21.952-15.552-35.424 0-13.44 5.664-26.24 15.552-35.328l192-176 0.096 0.128c8.576-7.904 19.84-12.768 32.352-12.768 26.496 0 48 21.504 48 48 0 14.016-6.080 26.496-15.648 35.264l0.096 0.064-153.408 140.64 153.408 140.64-0.096 0.16c9.568 8.704 15.648 21.216 15.648 35.232 0 26.496-21.504 48-48 48zM512 960c-282.752 0-512-229.28-512-512.032 0-282.72 229.248-511.968 512-511.968s512 229.248 512 511.968c0 282.752-229.248 512.032-512 512.032zM512 32c-229.376 0-416 186.624-416 415.968 0 229.376 186.624 416.032 416 416.032s416-186.656 416-416.064c0-229.312-186.624-415.936-416-415.936z" />
<glyph unicode="&#xe905;" glyph-name="arrow-right" d="M464.448 659.392l-0.096-0.16c-8.576 7.84-19.84 12.768-32.352 12.768-26.496 0-48-21.504-48-48 0-14.016 6.080-26.496 15.648-35.264l-0.096-0.16 153.408-140.64-153.312-140.704c-9.568-8.736-15.648-21.248-15.648-35.232 0-26.496 21.504-48 48-48 12.512 0 23.776 4.864 32.352 12.736l0.096-0.128 192 176c9.888 9.088 15.552 21.92 15.552 35.36 0 13.504-5.664 26.304-15.552 35.392l-192 176.032zM512 960c-282.752 0-512-229.28-512-512.032 0-282.72 229.248-511.968 512-511.968s512 229.248 512 511.968c0 282.752-229.248 512.032-512 512.032zM512 32c-229.376 0-416 186.624-416 415.968 0 229.376 186.624 416.032 416 416.032s416-186.656 416-416.064c0-229.312-186.624-415.936-416-415.936z" />
<glyph unicode="&#xe906;" glyph-name="icon-aim" d="M865.472 104.341c-55.723 144.341-230.571 247.552-238.677 252.245-14.549 7.787-28.011 18.581-35.307 24.875-0.384 9.579 1.408 13.504 2.069 14.080 0 0 0.939 0.576 3.776 0.576 6.187 0 13.461-2.709 17.259-4.373 18.965-7.083 46.187-8.533 65.707-8.533 5.717 0 9.515 0.128 9.6 0.128 100.907 0.043 163.755 61.675 166.379 64.299 6.528 6.549 8.128 16.491 3.968 24.747l-40.512 80.085c-2.603 5.163-7.211 9.045-12.757 10.752s-11.52 1.088-16.576-1.707c-51.179-28.203-95.893-43.157-129.301-43.157-29.909 0-41.387 11.755-43.627 14.464-7.744 15.424-28.373 55.829-28.373 55.829-0.789 1.536-1.749 3.008-2.88 4.288-12.885 14.912-30.571 22.784-51.115 22.784-26.837 0-50.005-13.419-52.096-14.699-102.997-58.283-103.275-223.744-103.168-229.163-12.011-172.992-198.72-222.613-206.677-224.661-9.451-2.411-16.085-10.923-16.085-20.672 0-4.629 0-13.248 46.677-120.341 3.435-7.872 11.2-12.8 19.541-12.8 1.301 0 2.581 0.085 3.883 0.341 159.189 29.248 268.864 166.208 302.635 213.717 162.411-82.496 207.616-185.003 208.043-185.963 2.539-6.080 7.765-10.667 14.144-12.416 6.4-1.621 13.205-0.384 18.475 3.627l88.043 66.965c7.531 5.76 10.389 15.808 6.955 24.683zM764.459 61.76c-24.768 40.427-89.856 124.245-232.704 192.299-9.771 4.629-21.504 1.259-27.264-7.915-1.088-1.707-106.816-167.659-268.523-206.869-12.011 27.84-23.744 56-30.592 73.621 56.725 20.672 205.547 90.581 217.067 257.621-0.021 1.451 0.107 147.243 81.963 193.621 4.245 2.453 18.048 8.917 30.699 8.917 7.275 0 12.843-2.048 17.323-6.421 4.885-9.621 21.781-42.709 28.416-55.829 2.133-3.584 22.635-35.115 80.256-35.115 36.501 0 80.277 12.843 130.347 38.165l23.061-45.632c-20.011-14.997-64.704-42.219-125.589-42.219-0.192 0-3.499-0.128-8.619-0.128-21.973 0-40.981 2.176-49.195 5.163-1.685 0.789-16.939 7.744-33.771 7.744-18.624 0-29.781-8.213-35.84-15.125-11.029-12.501-14.827-30.549-11.669-55.168 0.597-4.843 2.88-9.301 6.379-12.672 0.96-0.917 23.552-22.464 49.792-36.459 1.621-0.96 156.885-92.587 213.504-215.787l-55.040-41.813zM621.611 622.912c77.099 0 139.861 62.699 139.861 139.84 0 77.077-62.741 139.84-139.861 139.84s-139.819-62.741-139.819-139.84c0-77.12 62.699-139.84 139.819-139.84zM621.611 859.925c53.611 0 97.195-43.584 97.195-97.173s-43.584-97.173-97.195-97.173c-53.589 0-97.152 43.584-97.152 97.173s43.563 97.173 97.152 97.173z" />
<glyph unicode="&#xe907;" glyph-name="icon-behance" d="M168.661 484.16h152.811c47.787 0 71.019 28.8 71.019 88 0 62.933-39.851 79.552-60.907 79.552h-162.923c-11.797 0-21.333-9.557-21.333-21.333v-124.885c0-11.776 9.557-21.333 21.333-21.333zM189.995 609.067h141.589c0.192 0 18.24-0.427 18.24-36.885 0-45.333-13.12-45.333-28.352-45.333h-131.477v82.219zM468.459 478.976c23.552 19.499 42.837 51.605 42.837 101.867 0 103.509-70.549 170.368-179.712 170.368h-291.243c-11.776 0-21.333-9.557-21.333-21.333v-559.701c0-11.776 9.557-21.312 21.333-21.312h290.56c0.235 0 2.432-0.043 2.645-0.043 0 0 0 0 0.021 0 13.227 0 59.883 1.813 104.896 24.853 42.091 21.568 92.245 67.115 92.203 160.491 0.192 3.243 3.947 80.149-40.235 126.848-6.656 7.083-13.995 13.077-21.973 17.963zM488.043 335.381c0-58.624-23.211-100.245-69.013-123.712-37.483-19.179-77.781-20.16-85.461-20.16h-0.021l-1.963 0.021h-269.909v517.035h269.909c85.824 0 137.045-47.744 137.045-127.701 0-77.099-59.093-84.672-65.643-85.248-11.456-0.853-20.16-10.603-19.755-22.059 0.448-11.477 9.856-20.544 21.333-20.544 23.36 0 41.259-6.912 54.763-21.141 31.552-33.237 28.779-94.741 28.715-96.491zM331.584 440.555h-162.923c-11.797 0-21.333-9.557-21.333-21.333v-149.611c0-11.776 9.536-21.333 21.333-21.333l155.179 0.021c55.979 1.259 88.085 35.52 88.085 94.037 0 77.696-52.501 98.219-80.341 98.219zM322.944 290.965h-132.949v106.944h141.547c6.293-0.128 37.717-3.328 37.717-55.552 0-44.245-22.293-50.859-46.315-51.392zM789.461 547.2c-83.093 0-114.581-68.459-119.616-104.64-0.853-6.123 0.981-12.288 5.035-16.96 4.032-4.651 9.899-7.339 16.085-7.339h183.851c11.691 0 21.163 9.387 21.333 21.056 0.021 1.92 0.256 47.552-30.891 79.104-18.837 19.115-44.352 28.779-75.797 28.779zM719.765 460.928c9.216 19.499 28.864 43.605 69.696 43.605 19.797 0 34.581-5.184 45.248-15.872 8.192-8.213 12.821-18.624 15.424-27.733h-130.368zM1003.221 362.155c0.661 5.013 15.317 124.075-53.333 202.283-37.739 42.965-92.437 64.747-162.624 64.747-122.091 0-180.117-64.875-207.317-119.317-28.779-57.621-29.056-114.688-28.992-115.733-0.32-4.693-6.443-115.712 64.235-190.997 41.109-43.755 98.923-65.963 170.688-65.963h0.171c0 0 3.243-0.192 8.939-0.192 99.179 0 205.163 44.736 205.163 170.304 0 11.776-9.536 21.333-21.333 21.333h-98.517c-5.717 0-11.179-2.475-15.211-6.549-4.011-4.053-6.208-9.749-6.123-15.467 0.021-0.576 0.107-14.016-10.176-24.448-10.752-10.944-29.547-15.701-56.747-13.781-34.56 2.389-71.211 10.752-77.675 75.157h267.712c10.709 0.043 19.755 8 21.141 18.624zM962.112 386.24h-270.080c-11.776 0-21.333-9.557-21.333-21.333 0-130.837 89.088-137.024 118.379-139.072 41.749-2.944 71.040 6.443 90.944 27.264 10.368 10.859 15.787 22.805 18.603 32.853h57.493c-5.397-40.043-26.795-68.48-64.939-86.592-37.568-17.813-79.765-19.733-96.213-19.733-3.904 0-6.229 0.107-7.701 0.149-60.693 0-108.032 17.6-140.779 52.331-58.048 61.611-53.013 158.4-52.928 160.619 0.043 7.915 2.859 193.749 193.707 193.749 57.28 0 101.141-16.832 130.432-50.069 41.621-47.232 45.312-117.12 44.416-150.165zM666.88 647.424h230.891c11.776 0 21.333 9.536 21.333 21.333v68.907c0 11.797-9.557 21.333-21.333 21.333h-230.891c-11.797 0-21.333-9.536-21.333-21.333v-68.907c0-11.797 9.536-21.333 21.333-21.333zM688.213 716.331h188.224v-26.24h-188.224v26.24z" />
<glyph unicode="&#xe908;" glyph-name="icon-dribbble" d="M804.715 756.992l-19.456 18.432-0.661-1.109c-76.672 64.235-172.331 99.669-272.597 99.669-54.464 0-107.456-10.795-158.059-31.125l-0.555 0.576-13.504-5.952c-125.419-55.531-216.96-168.469-244.843-302.187l-3.456-16.597 0.811-0.384c-3.904-23.317-6.4-46.848-6.4-70.315 0-124.736 53.909-241.323 148.309-322.517l-0.192-0.448 12.843-10.219c76.245-60.715 167.915-92.8 265.045-92.8 51.285 0 101.909 9.429 150.955 28.096l13.461 5.227v0.363c139.968 56.747 236.011 181.419 256.704 332.565l1.131-0.405 2.133 27.648c0.832 10.752 1.621 21.525 1.621 32.469 0 117.824-47.339 227.563-133.291 309.013zM889.749 448v-2.155c-42.667 14.549-98.411 21.888-150.464 21.888-45.205 0-89.493-5.632-133.376-16.683-8.491 22.677-16.939 44.821-26.624 66.24l1.408 0.619-0.469 1.003c86.4 43.221 157.675 107.691 210.816 188.395 65.664-70.976 98.709-162.091 98.709-259.307zM762.069 737.451c-49.472-77.675-118.187-139.499-200.491-180.501-46.229 92.032-105.152 176.768-175.616 252.523 40.597 14.272 82.816 21.845 126.037 21.845 92.331 0 180.309-33.451 250.069-93.867zM343.787 792.256c72.299-75.349 132.459-160.32 179.157-252.949-59.328-23.637-121.877-35.627-186.219-35.627-68.011 0-133.867 13.333-196.075 39.616 27.776 108.224 102.272 199.595 203.136 248.96zM128.661 448c0 17.493 1.664 35.029 4.075 52.459 64.896-26.176 133.376-39.467 204.011-39.467s139.2 13.461 204.288 39.701c9.088-20.053 17.643-40.747 25.664-61.973-136.683-46.144-249.003-143.787-313.749-272.789-79.232 72.661-124.288 173.973-124.288 282.069zM286.741 138.133c59.093 123.541 164.949 217.216 294.464 260.629 33.621-101.291 51.456-206.677 52.992-313.707-39.872-13.525-80.917-20.352-122.219-20.352-81.813-0.021-159.36 25.323-225.237 73.429zM675.755 101.675c-3.008 105.216-21.035 208.725-53.931 308.48 89.003 21.781 182.677 18.901 269.888-8.149-15.637-133.803-96.299-245.653-215.957-300.331z" />
<glyph unicode="&#xe909;" glyph-name="icon-facebook" d="M766.101 908.203l-139.947-0.064c0 0-2.859 0.213-7.957 0.213-28.715 0-173.909-7.979-213.44-163.691-0.619-1.728-13.888-40.704-14.123-131.371h-132.757c-11.776 0-21.333-9.536-21.333-21.333v-122.304c0-11.776 9.557-21.333 21.333-21.333h145.195v-439.339c0-11.776 9.557-21.333 21.333-21.333h166.251c11.797 0 21.333 9.557 21.333 21.333v438.891h145.664c11.797 0 21.333 9.536 21.333 21.333v122.752c0 11.797-9.536 21.333-21.333 21.333h-145.344v52.523c0 34.965 22.187 72.32 84.48 72.32h69.312c11.776 0 21.333 9.557 21.333 21.333v127.403c0 11.776-9.557 21.333-21.333 21.333zM744.768 780.8h-47.979c-87.829 0-127.147-57.749-127.147-114.987v-73.856c0-11.776 9.536-21.333 21.333-21.333h145.344v-80.085h-145.664c-11.776 0-21.333-9.557-21.333-21.333v-438.891h-123.584v439.339c0 11.797-9.536 21.333-21.333 21.333h-145.195v79.637h132.928c5.739 0 11.2 2.304 15.232 6.421 4.011 4.075 6.208 9.621 6.101 15.36-1.92 97.024 11.435 137.877 12.053 139.947 31.488 123.755 140.096 133.355 172.651 133.355 2.965 0 4.757-0.107 6.485-0.149h120.085v-84.757z" />
<glyph unicode="&#xe90a;" glyph-name="icon-flickr" d="M358.379 588.523c-76.928 0-139.52-63.040-139.52-140.523 0-77.525 62.592-140.565 139.52-140.565s139.52 63.040 139.52 140.565c0 77.483-62.592 140.523-139.52 140.523zM358.379 350.101c-53.419 0-96.853 43.925-96.853 97.899 0 53.952 43.435 97.856 96.853 97.856 53.397 0 96.853-43.904 96.853-97.856 0-53.973-43.456-97.899-96.853-97.899zM673.536 588.523c-76.928 0-139.52-63.040-139.52-140.523 0-77.525 62.592-140.565 139.52-140.565 76.907 0 139.499 63.040 139.499 140.565 0 77.483-62.571 140.523-139.499 140.523zM673.536 350.101c-53.419 0-96.853 43.925-96.853 97.899 0 53.952 43.435 97.856 96.853 97.856 53.397 0 96.832-43.904 96.832-97.856 0-53.973-43.435-97.899-96.832-97.899zM515.968 906.603c-255.168 0-462.741-205.739-462.741-458.624s207.573-458.581 462.741-458.581c250.795 0 454.827 205.717 454.827 458.581 0 252.907-204.053 458.624-454.827 458.624zM515.968 32.064c-231.616 0-420.075 186.581-420.075 415.915 0 229.355 188.459 415.957 420.075 415.957 227.264 0 412.16-186.603 412.16-415.957 0-229.333-184.896-415.915-412.16-415.915z" />
<glyph unicode="&#xe90b;" glyph-name="icon-googleplus" d="M498.581 564.864c8 12.053 13.227 24.725 15.808 39.189 1.173 10.816 1.771 20.181 1.771 27.883 0 33.173-8.491 66.859-25.173 99.947-8.555 17.451-20.117 31.957-35.029 43.563-15.467 11.136-33.344 17.109-53.056 17.728-0.405 0.021-0.789 0.021-1.195 0-26.816-0.619-49.387-11.52-67.115-32.384-0.469-0.576-0.939-1.173-1.344-1.792-13.995-20.544-20.8-43.733-20.203-68.416 0-30.912 8.981-63.189 26.859-96.213 9.195-16.299 21.141-30.272 35.541-41.536 16.085-12.608 34.667-19.029 56.085-19.029h0.085c25.515 0.96 47.211 10.347 64.427 27.947 0.939 0.939 1.792 1.984 2.539 3.115zM472.192 610.155c-1.195-6.613-3.904-13.333-8.043-19.968-9.195-8.725-20.331-13.227-33.344-13.739-11.029 0-20.501 3.243-29.035 9.941-9.963 7.808-18.261 17.515-24.491 28.587-14.293 26.389-21.547 51.84-21.547 76.075-0.384 15.936 3.605 29.995 12.16 42.944 9.429 10.773 20.373 16.021 34.261 16.469 11.008-0.448 20.437-3.605 28.224-9.216 9.237-7.189 16.512-16.427 22.4-28.395 13.739-27.285 20.715-54.528 20.715-80.96 0-6.293-0.533-14.037-1.301-21.739zM462.827 320.256c-2.944 2.069-6.336 3.328-9.92 3.733-5.483 0.576-11.883 0.875-19.221 0.896-5.525 0.448-15.637 0.107-35.413-1.749-17.472-2.475-35.648-6.549-55.531-12.544-4.245-1.621-10.219-4.053-18.475-7.552-8.896-4.096-18.048-9.92-27.84-17.899-9.301-8.235-17.195-18.389-23.083-29.547-7.723-13.419-11.648-29.355-11.648-47.403 0-35.285 15.872-64.533 46.741-86.613 27.84-20.949 65.515-31.872 112.597-32.448 42.496 0.576 76.011 10.603 99.733 29.845 24.448 20.053 36.885 46.251 36.885 77.824 0 25.6-8.491 48.235-25.984 68.053-15.083 15.488-37.611 33.6-68.843 55.403zM493.803 152.064c-16-12.992-40.661-19.819-72.768-20.245-37.248 0.448-66.496 8.469-87.339 24.171-20.011 14.293-29.333 30.891-29.333 52.203 0 10.453 2.005 19.221 6.315 26.731 3.883 7.317 8.597 13.461 13.333 17.685 6.293 5.099 12.373 9.024 17.472 11.371 7.083 3.008 12.587 5.248 14.976 6.251 16.341 4.885 32.427 8.448 46.741 10.517 11.733 1.088 20.117 1.643 25.173 1.643l1.579-0.021c4.629-0.619 9.237-0.192 13.141-0.405 26.219-18.539 45.696-34.261 57.301-46.080 9.813-11.157 14.592-23.936 14.592-39.061 0.021-18.667-6.741-32.917-21.184-44.757zM581.781 407.168l-35.904 29.269c-4.971 4.971-10.048 10.709-15.893 18.005-2.005 2.24-4.672 6.165-4.672 14.315 0 7.36 1.835 13.269 6.421 19.627 4.885 7.509 10.176 14.229 14.379 18.709 11.755 10.24 22.827 20.309 34.027 30.976 9.877 10.389 19.307 21.845 28.075 34.155 19.243 27.157 29.376 63.083 30.080 107.093l0.021 7.147c0.085 16.683 0.128 25.877-5.44 44.288-6.891 18.88-13.483 33.877-23.040 45.163h13.696c6.656 0 12.907 3.115 16.939 8.384l54.293 71.040c4.928 6.464 5.781 15.147 2.197 22.421-3.627 7.232-11.029 11.84-19.157 11.84h-220.757c-30.528 0-63.616-3.584-99.008-10.795-36.928-8.597-72.789-27.093-107.84-56.043-49.792-48.149-75.051-102.933-75.051-162.859 0-50.368 18.261-94.997 53.44-131.755 34.816-40.981 85.397-62.144 150.656-62.976 1.664 0 3.371 0.021 5.099 0.064-1.259-6.037-1.877-12.629-1.877-19.883 0-20.309 4.8-38.187 13.333-51.563 0.811-1.557 1.643-3.115 2.496-4.693-18.752-1.685-39.787-4.245-63.040-7.659-41.621-7.189-81.877-21.781-119.957-43.563-35.371-21.077-60.352-46.357-74.155-74.88-13.952-27.968-21.013-54.144-21.013-77.803 0-48.619 22.165-90.624 65.28-124.309 41.856-35.392 104.704-53.739 186.795-54.507h0.533c97.131 1.515 173.056 25.579 225.728 71.509 51.84 45.312 78.123 98.56 78.123 158.613-0.747 41.92-10.752 76.757-30.165 104.107-18.411 24.171-40.192 46.549-64.64 66.56zM570.411 110.037c-44.8-39.061-111.445-59.584-198.059-60.971-71.744 0.704-125.376 15.637-160.021 44.928-33.344 26.069-49.515 55.893-49.515 91.2 0 17.003 5.568 36.779 16.64 59.008 10.219 21.099 29.632 40.299 57.365 56.853 33.408 19.115 68.971 32 105.173 38.272 37.909 5.589 69.739 8.747 94.592 9.451 8 0.213 15.211 4.885 18.645 12.096 3.456 7.232 2.581 15.765-2.261 22.123-7.168 9.429-13.675 19.712-20.203 32.064-5.099 8.085-7.595 18.005-7.595 30.293 0 8.469 1.344 13.355 2.965 17.301 2.368 6.784 4.629 13.056 6.677 18.731 2.496 6.933 1.259 14.677-3.307 20.48-4.053 5.163-10.261 8.128-16.747 8.128-0.789 0-1.579-0.043-2.368-0.128-11.947-1.344-23.061-2.027-32.832-2.027-52.843 0.661-91.563 16.363-119.232 48.853-28.565 29.888-42.453 63.637-42.453 103.211 0 48.576 20.288 91.819 60.779 131.072 28.651 23.595 58.645 39.189 88.533 46.144 31.979 6.528 62.229 9.813 89.899 9.813h177.6l-21.675-28.373h-57.557c-9.387 0-17.429-6.336-20.16-15.339-2.709-9.003 1.045-18.901 8.896-24.107 4.331-2.88 20.203-18.219 26.987-24.768l5.696-5.461c6.464-6.677 13.355-25.643 15.573-31.595 3.328-11.136 3.307-15.296 3.243-30.677l-0.021-6.976c-0.555-34.901-8.043-62.741-22.165-82.709-7.573-10.603-15.744-20.523-23.509-28.715-9.984-9.493-20.629-19.157-33.237-30.272-7.424-7.68-14.4-16.533-20.075-25.344-9.301-12.693-13.995-27.435-13.995-43.861 0-16.853 5.227-31.253 14.741-41.813 6.037-7.595 12.181-14.549 19.883-22.080l37.483-30.677c21.888-17.92 41.344-37.909 57.344-58.859 13.909-19.627 21.269-46.4 21.845-79.189-0.043-47.467-20.843-88.725-63.573-126.080zM882.517 767.232h-64v64c0 11.797-9.557 21.333-21.333 21.333s-21.333-9.536-21.333-21.333v-64h-64c-11.776 0-21.333-9.536-21.333-21.333 0-11.776 9.557-21.333 21.333-21.333h64v-64c0-11.776 9.557-21.333 21.333-21.333s21.333 9.557 21.333 21.333v64h64c11.776 0 21.333 9.557 21.333 21.333 0 11.797-9.557 21.333-21.333 21.333z" />
<glyph unicode="&#xe90c;" glyph-name="icon-linkedin" d="M255.915 646.272h-172.181c-11.797 0-21.333-9.536-21.333-21.333v-601.899c0-11.797 9.536-21.333 21.333-21.333h172.181c11.797 0 21.333 9.536 21.333 21.333v601.899c0 11.797-9.536 21.333-21.333 21.333zM234.581 44.373h-129.515v559.232h129.515v-559.232zM736 653.589c-83.605 0-138.304-36.053-170.069-67.435l-3.947 40.832c-1.067 10.965-10.261 19.285-21.227 19.285h-0.427l-156.971-3.008c-5.76-0.107-11.2-2.539-15.147-6.741-3.947-4.181-6.016-9.792-5.76-15.552 1.963-43.947 1.899-95.317 1.813-154.795l-0.021-446.165c0-11.797 9.536-21.333 21.333-21.333h172.203c11.776 0 21.333 9.536 21.333 21.333v347.947c0 17.792 1.515 30.635 4.587 38.293 10.731 27.307 46.123 55.573 86.784 55.573 52.672 0 84.096-40.064 84.096-107.2v-334.592c0-11.797 9.557-21.333 21.333-21.333h169.173c11.797 0 21.333 9.536 21.333 21.333v356.416c0.043 173.568-86.101 277.141-230.421 277.141zM923.797 41.365h-126.507v313.259c0 91.029-49.749 149.867-126.763 149.867-61.077 0-110.763-42.581-126.464-82.581-5.184-12.949-7.573-30.080-7.573-53.952v-326.592h-129.536l0.021 424.747c0.085 50.539 0.128 95.253-1.045 134.912l115.499 2.219 6.635-68.821c1.067-10.944 10.24-19.264 21.248-19.264h3.627c7.36 0 14.187 3.776 18.091 10.027 12.587 20.096 61.675 85.739 164.992 85.739 119.36 0 187.797-85.44 187.797-234.475v-335.083zM177.067 897.301c-69.269 0-119.531-47.723-119.531-113.493 0-65.728 49.259-113.429 117.12-113.429 69.952 0 120.704 47.701 120.704 113.941-1.557 66.496-50.197 112.981-118.293 112.981zM174.677 713.024c-43.84 0-74.453 29.099-74.453 70.763 0 42.368 30.869 70.827 76.864 70.827 44.928 0 74.645-28.011 75.648-70.827-0.021-42.325-31.403-70.763-78.059-70.763z" />
<glyph unicode="&#xe90d;" glyph-name="icon-pinterest" d="M877.205 689.515c-14.592 49.472-38.037 91.136-71.723 127.403-32.939 35.435-70.784 62.293-115.776 82.112-32.384 14.272-84.715 31.275-150.123 31.275-5.717 0-11.477-0.149-17.259-0.427-19.712-0.896-40.597-2.027-60.587-4.885-55.851-8-105.003-24.704-150.251-51.072-57.856-33.664-102.997-79.488-134.165-136.149-16.235-29.483-32.192-81.429-38.955-115.349-8.043-40.171-0.939-109.781 15.189-148.971 19.947-48.384 37.269-71.019 77.269-100.949 0.256-0.171 24.683-18.304 43.029-18.304h0.021c31.915 0.597 38.123 30.677 41.109 45.12 0.512 2.581 1.067 5.141 1.685 7.531 0.533 2.133 1.259 4.395 1.984 6.763 4.352 14.165 10.304 33.557 0.235 51.115-3.712 6.485-8.064 11.435-11.925 15.808-1.963 2.24-3.968 4.437-5.568 6.827-14.016 20.928-21.141 47.168-21.141 77.952 0 40.619 9.173 77.419 28.011 112.448 34.155 63.531 90.88 103.616 164.011 115.989 40.981 6.891 91.157 3.797 126.677-7.616 33.131-10.645 61.333-29.525 81.557-54.571 21.419-26.475 33.664-60.139 36.395-100.053 1.344-19.627 0.576-41.387-2.432-68.523-7.403-65.899-26.453-118.912-56.704-157.589-24.555-31.424-50.944-47.189-80.661-48.192l-4.011-0.085c-17.152 0-30.123 3.84-42.112 12.437-12.011 8.619-19.2 19.243-22.592 33.429-3.861 16.235 0.875 33.365 5.909 51.541l0.789 2.944c4.459 16.149 9.088 30.912 13.632 45.44 7.211 23.040 14.677 46.848 20.843 74.496 6.976 31.381 7.893 56.789 2.816 77.675-6.336 26.091-20.309 45.632-41.557 58.112-21.845 12.8-54.528 15.595-81.003 6.507-39.573-13.568-69.76-49.536-82.795-98.731-6.613-24.832-8.491-50.944-5.675-77.525 2.176-20.651 6.72-39.36 15.125-61.803-0.235-0.768-0.448-1.536-0.704-2.304-0.597-2.069-1.195-4.032-1.6-5.781-9.237-38.677-18.219-76.843-27.179-114.944-8.341-35.413-16.661-70.784-25.173-106.517l-1.92-7.957c-8.832-36.907-18.005-75.093-20.117-120.768l-0.939-18.88c-1.856-35.413-3.776-72.021 0.981-106.112 0.917-6.336 3.2-22.293 18.581-28.011 2.795-2.027 7.509-4.629 14.037-4.629 12.416 0 20.416 8.448 33.408 23.339 30.080 34.325 55.659 77.675 78.251 132.501 10.091 24.533 16.768 50.901 23.232 76.373l3.861 15.104c4.501 17.344 8.917 34.88 13.269 52.267 7.851-6.592 16.811-12.608 27.008-18.261 24.235-13.504 51.563-21.355 81.259-23.36 28.864-2.048 56.939 1.643 89.152 10.944 24.448 6.997 47.893 17.643 69.696 31.616 77.888 50.069 130.987 137.557 149.525 246.4 5.525 32.512 7.872 58.624 7.872 87.275-0.021 33.131-3.989 63.296-11.776 89.579zM838.997 519.787c-16.469-96.875-62.827-174.165-130.496-217.664-18.261-11.733-37.909-20.651-58.389-26.496-27.413-7.893-50.56-11.008-74.453-9.387-23.701 1.6-44.48 7.531-63.424 18.069-19.029 10.581-31.317 21.909-39.915 36.757-4.331 7.531-12.8 11.691-21.376 10.453-8.576-1.195-15.595-7.445-17.749-15.851l-9.6-38.037c-4.501-17.899-9.024-36.011-13.675-53.867l-3.947-15.339c-6.357-25.152-12.352-48.896-21.312-70.613-19.115-46.464-40.299-83.584-64.555-113.195-1.429 24.427-0.021 51.371 1.344 77.632l0.96 19.115c1.941 41.643 10.603 77.824 19.008 112.789l1.92 8.021c8.512 35.755 16.853 71.189 25.216 106.645 8.96 38.037 17.92 76.139 27.115 114.731l1.024 3.563c2.283 7.68 4.885 16.405 1.387 25.173-8.085 20.864-12.373 37.483-14.293 55.637-2.261 21.397-0.768 42.283 4.501 62.080 9.323 35.179 29.504 60.437 55.403 69.312 6.080 2.091 12.651 3.136 19.499 3.136 9.813 0 19.541-2.261 26.048-6.080 11.072-6.507 18.155-16.768 21.717-31.403 3.477-14.208 2.453-33.813-3.008-58.304-5.781-25.899-12.651-47.808-19.904-71.019-4.715-14.976-9.451-30.208-14.059-46.869l-0.789-2.901c-5.931-21.504-12.672-45.867-6.272-72.768 5.803-24.448 18.645-43.477 39.211-58.219 19.136-13.76 41.045-20.437 66.987-20.437l5.461 0.107c42.496 1.429 80.469 23.168 112.811 64.533 35.179 44.971 57.237 105.259 65.493 179.115 3.328 29.76 4.139 53.973 2.624 76.203-3.371 48.811-18.773 90.517-45.781 123.947-25.472 31.552-60.629 55.168-101.717 68.373-41.899 13.483-99.157 17.109-146.816 9.088-86.635-14.656-153.877-62.315-194.496-137.856-22.272-41.408-33.109-84.821-33.109-132.672 0-39.403 9.536-73.6 28.352-101.696 2.603-3.925 5.739-7.552 8.96-11.243 2.773-3.136 5.397-6.144 6.72-8.363 0.789-3.115-2.176-12.715-3.755-17.877-0.917-2.965-1.792-5.803-2.496-8.469-0.789-3.093-1.493-6.4-2.176-9.728-0.576-2.752-1.408-6.741-2.283-9.685-4.48 2.069-10.88 5.717-14.528 8.427-33.899 25.344-46.336 41.643-63.381 83.051-12.821 31.104-19.136 92.715-12.821 124.373 7.125 35.605 22.272 80.917 34.496 103.147 27.392 49.792 67.157 90.112 118.251 119.829 40.427 23.552 84.523 38.507 134.848 45.717 18.133 2.603 37.035 3.627 56.469 4.501 64.277 2.901 117.099-13.568 148.224-27.264 39.552-17.408 72.811-41.003 101.717-72.107 29.077-31.317 49.365-67.435 62.059-110.443 6.635-22.4 10.005-48.469 10.005-77.547 0.043-26.133-2.155-50.112-7.253-80.128z" />
<glyph unicode="&#xe90e;" glyph-name="icon-skype" d="M942.699 369.941c6.699 37.888 32.192 230.229-111.232 371.264-10.901 12.672-118.507 131.733-316.651 131.733-22.315 0-45.184-1.557-68.139-4.651-18.176 9.557-69.653 33.216-133.995 33.216-69.376 0-131.008-26.773-183.445-79.829-1.216-1.28-118.997-127.061-39.893-289.152-5.931-27.243-19.669-116.011 21.675-224.149 2.261-8.149 57.984-200.341 268.309-263.019 2.859-1.109 70.912-26.667 164.864-26.667 14.613 0 29.227 0.619 43.541 1.877 16.192-7.296 63.467-26.069 121.621-26.069 69.525 0 131.563 27.392 178.859 78.613 4.885 4.885 117.845 120.576 54.485 296.832zM857.451 102.656c-40.171-43.456-89.984-65.493-148.096-65.493-59.947 0-107.584 23.915-108.011 24.149-3.029 1.557-6.4 2.368-9.771 2.368-0.704 0-1.408-0.043-2.133-0.107-14.784-1.472-30.016-2.219-45.248-2.219-85.653 0-149.013 23.616-151.125 24.384-188.715 56.277-240.448 232.341-241.536 235.968-44.096 115.605-19.328 206.677-19.093 207.509 1.515 5.269 0.939 10.923-1.6 15.765-71.893 137.963 25.109 242.816 28.992 246.933 43.904 44.395 95.317 66.923 152.853 66.923 66.56 0 118.4-30.613 118.869-30.891 4.224-2.581 9.323-3.584 14.144-2.859 23.317 3.435 46.571 5.184 69.12 5.184 184.064 0 283.648-116.096 284.608-117.227 0.469-0.555 0.981-1.109 1.472-1.621 140.053-137.024 99.285-336.768 98.859-338.795-0.853-4.011-0.555-8.213 0.896-12.032 57.963-153.045-38.528-253.184-43.2-257.941zM625.579 514.773c-0.704 0.213-1.408 0.384-2.133 0.491-104.363 18.624-165.611 46.571-165.781 46.571-13.547 7.68-21.355 15.829-22.016 22.955-0.704 7.616 6.421 16.811 10.923 21.163 26.133 13.248 50.624 19.968 72.789 19.968 48.491 0 71.296-32.235 72.277-33.6 31.723-46.933 64.32-70.72 96.811-70.72 21.781 0 34.773 10.944 36.779 12.8 21.419 18.795 32.747 41.771 32.811 66.453 0.085 47.339-39.979 84.053-44.096 87.701-48.085 44.843-112.107 67.584-190.229 67.584-72.875 0-131.157-20.309-133.312-21.056-125.44-42.155-135.765-150.293-123.733-201.579 0.192-0.811 0.448-1.6 0.704-2.368 46.293-128.107 240.448-144.683 248.683-145.344 88.832-7.019 92.971-48.448 93.12-50.837 3.093-43.243-74.432-56.576-86.443-58.389-77.525 4.373-96.171 34.005-96.213 34.005 0 0 0 0 0-0.021-0.619 1.28-1.344 2.453-2.197 3.563-42.581 56.341-59.2 75.883-96.448 76.843l-2.88 0.043c-29.845 0-47.509-12.587-57.045-23.147-24.256-26.837-21.077-65.664-20.651-69.995 0.107-0.939 0.277-1.877 0.469-2.816 34.475-144.299 218.56-148.459 239.467-148.459h0.491c11.221-0.661 22.037-0.981 32.427-0.981 245.867 0 262.72 179.627 262.805 181.035 10.731 110.059-98.24 171.2-157.376 188.139zM740.544 330.411c-0.533-6.059-17.579-155.2-250.901-141.248-0.448 0.043-1.941 0.043-2.347 0.043-17.344 0-169.536 3.221-197.547 114.048-0.213 4.907-0.341 24.597 9.899 35.968 5.547 6.123 14.72 9.387 27.157 9.067 15.424-0.405 22.101-5.184 62.656-58.773 6.635-11.157 36.8-50.837 133.099-55.659 1.195-0.064 2.325-0.021 3.477 0.107 49.045 5.589 130.731 33.771 125.781 102.869-0.064 3.307-2.816 81.259-132.416 91.499-1.728 0.149-173.461 14.677-211.435 116.053-2.56 12.373-19.157 111.552 96.341 150.357 0.533 0.192 53.781 18.731 119.424 18.731 66.987 0 121.195-18.901 161.493-56.448 8.427-7.552 30.272-32.363 30.165-56.213-0.085-12.373-6.037-23.595-18.027-34.133-0.128-0.085-3.264-2.411-8.896-2.411-7.915 0-29.76 5.056-61.376 51.819-1.408 2.155-35.669 52.523-107.712 52.523-29.76 0-61.632-8.725-94.763-25.963-1.301-0.683-2.496-1.472-3.627-2.389-3.136-2.56-30.613-25.984-27.84-58.944 1.877-22.229 16.512-41.259 44.971-57.344 2.667-1.259 66.091-30.613 176.619-50.475 13.269-4.032 135.381-44.011 125.803-143.083z" />
<glyph unicode="&#xe90f;" glyph-name="icon-twitter" d="M973.397 743.083c-7.552 5.163-17.515 4.971-24.832-0.491-5.056-3.776-12.587-7.125-21.376-10.069 28.949 35.925 29.376 59.925 28.949 65.813-0.576 7.68-5.248 14.485-12.224 17.749-6.976 3.285-15.168 2.56-21.461-1.963-39.467-28.267-78.955-34.389-101.973-35.2-37.504 34.859-86.016 53.952-137.536 53.952-111.509 0-202.24-90.709-202.24-202.219 0-8.064 0.491-16.107 1.429-24.085-186.112 4.608-337.024 180.011-338.539 181.824-4.48 5.269-11.179 8.085-18.133 7.445-6.891-0.576-13.056-4.501-16.555-10.453-47.36-80.981-28.032-157.696 4.437-211.328-6.037 3.243-13.333 3.456-19.584 0.341-7.147-3.541-11.712-10.795-11.861-18.752-1.387-85.056 37.461-136.064 76.672-165.76-2.88-1.173-5.504-2.987-7.68-5.355-5.099-5.589-6.869-13.483-4.629-20.715 27.243-87.851 91.243-120.789 136.149-133.141-51.477-36.288-115.2-44.821-163.605-44.821-30.891 0-52.203 3.669-52.416 3.712-9.643 1.707-19.349-3.456-23.275-12.523-3.904-9.045-1.152-19.627 6.741-25.536 97.152-73.024 214.421-88.384 295.744-88.384 64.256 0 108.907 9.387 111.168 9.877 417.323 97.472 433.195 471.659 432.512 539.819 78.229 71.893 90.688 99.947 92.651 106.944 2.411 8.768-1.003 18.155-8.533 23.317zM853.333 637.781c-4.843-4.373-7.403-10.731-6.955-17.28 0.277-4.053 23.083-407.317-398.955-505.877-0.427-0.085-42.453-8.853-101.867-8.853-55.381 0-128.704 7.595-198.635 38.293 64.021 4.096 142.571 23.744 199.061 86.229 5.653 6.272 7.040 15.275 3.605 22.976-3.435 7.68-11.115 12.672-19.563 12.672-3.968 0-87.936 1.024-129.963 79.061 19.456-0.619 37.077 2.261 50.176 8.235 8.405 3.819 13.333 12.565 12.352 21.717-0.981 9.173-7.765 16.64-16.768 18.581-4.544 0.981-101.205 22.976-118.635 124.928 15.147-5.781 33.579-9.792 51.413-7.168 8.277 1.237 15.083 7.189 17.365 15.253 2.304 8.043-0.299 16.704-6.677 22.123-4.267 3.627-96.448 83.733-56.427 188.565 53.696-54.528 199.808-182.805 376-172.885 6.357 0.363 12.224 3.563 16 8.704s5.035 11.712 3.456 17.877c-3.307 12.928-4.971 26.283-4.971 39.723 0 87.979 71.595 159.552 159.573 159.552 43.115 0 83.499-16.939 113.749-47.659 3.925-3.989 9.259-6.272 14.848-6.379l3.285-0.021c15.68 0 40.256 1.899 68.437 10.987-9.024-9.536-20.757-20.288-35.989-32.043-7.467-5.781-10.24-15.765-6.848-24.576 3.413-8.789 12.267-14.336 21.589-13.589 3.456 0.299 18.645 1.6 37.44 4.971-11.797-12.117-26.88-26.688-46.101-44.117z" />
<glyph unicode="&#xe910;" glyph-name="icon-vimeo" d="M924.011 765.44c-41.131 61.333-114.411 63.872-117.504 63.957l-7.467 0.107c-200.555 0-249.429-210.581-249.92-212.715-1.621-7.339 0.747-14.997 6.251-20.16 5.504-5.141 13.248-7.019 20.501-4.928 43.2 12.459 73.792 11.435 84.8-2.624 8.448-10.795 6.699-29.248 5.12-36.629-64.299-162.603-104.256-182.016-111.573-184.256-22.037 15.275-55.36 143.381-72.299 279.36-19.563 140.715-80.427 170.24-128 170.24-31.147 0-55.915-13.184-62.272-16.917-80.341-37.205-206.507-169.003-211.861-174.635-7.509-7.851-7.893-20.096-0.917-28.416l40.171-47.915c3.925-4.693 9.707-7.488 15.829-7.616 5.803-0.299 12.011 2.325 16.171 6.827 27.328 29.525 43.179 32.704 48.725 32.704 8.149 0 12.16-7.061 13.013-8.704 46.528-93.525 78.315-227.904 78.656-229.397 60.544-250.219 142.336-277.227 174.699-277.227 3.861 0 6.229 0.427 6.187 0.448 231.829 29.696 437.099 439.488 446.549 458.773 39.872 104.683 41.621 185.323 5.141 239.723zM879.787 542.763c-2.027-4.053-203.733-407.040-413.376-433.6l-0.299-21.333v21.333c-3.029 0-74.709 2.795-133.184 244.437-1.344 5.696-33.216 140.501-81.664 237.867-5.611 12.245-22.763 33.024-51.52 33.024-19.925 0-40.64-9.664-62.891-29.483l-12.907 15.403c34.432 34.688 127.68 125.44 186.432 152.128 0.853 0.405 1.664 0.832 2.453 1.344 0.171 0.107 18.688 11.243 41.045 11.243 55.531 0 77.291-72.555 85.717-133.163 10.816-87.019 42.24-291.392 100.48-314.347 2.624-1.109 6.976-2.368 12.864-2.368 45.867 0 97.365 71.637 153.088 212.971 0.341 0.789 0.576 1.6 0.811 2.411 1.173 4.48 10.731 44.544-12.331 74.389-18.112 23.467-48.811 32.469-92.587 26.069 21.035 51.904 75.883 145.749 197.099 145.749l6.357-0.085c0.533-0.021 54.208-1.877 83.179-45.056 27.947-41.664 24.619-111.061-8.768-198.933z" />
<glyph unicode="&#xe911;" glyph-name="icon-zerply" d="M871.915 200.555c-1.728 6.805-6.677 12.352-13.291 14.763-6.592 2.411-13.909 1.472-19.712-2.581-28.096-19.861-57.344-29.525-89.387-29.525-60.715 0-123.264 33.963-189.525 69.867-52.544 28.523-106.539 57.792-162.133 70.485 45.525 49.707 94.123 100.843 141.419 150.571 56.789 59.691 115.499 121.429 170.411 182.336 8.021 8.875 16.448 17.664 24.917 26.475 49.344 51.413 105.259 109.717 93.291 203.285-0.704 5.781-3.797 11.029-8.469 14.485s-10.581 4.821-16.341 3.84c-44.693-7.787-134.251-20.885-232.277-20.885-88.747 0-160.213 11.264-206.677 32.555-8.277 3.861-18.027 1.941-24.299-4.608-40.619-42.347-85.44-97.664-71.253-150.037 17.045-62.869 129.301-57.813 224.619-55.36 2.752 0.085 5.419 0.149 8.128 0.213-66.795-86.955-146.411-181.184-237.099-280.64-8.512-9.344-17.429-18.368-26.325-27.435-50.645-51.435-108.011-109.781-88.363-220.075 2.005-11.264 12.416-18.923 23.936-17.365 99.968 13.909 194.432-6.4 279.851-60.053 17.92-11.264 35.264-23.936 53.675-37.312 42.816-31.211 87.104-63.488 140.075-78.251 17.877-4.992 36.096-7.531 54.165-7.531 56.832 0 108.501 24.469 141.717 67.136 33.259 42.688 43.541 97.963 28.949 155.648zM809.344 71.125c-33.259-42.688-93.077-60.779-150.741-44.757-45.547 12.715-86.677 42.667-126.443 71.637-18.155 13.205-36.885 26.901-56.064 38.933-74.88 47.040-156.203 70.891-241.792 70.891-14.912 0-30.101-0.725-45.355-2.197-6.443 75.541 33.6 116.224 79.403 162.795 9.301 9.429 18.581 18.88 27.456 28.629 103.872 113.899 193.408 221.12 266.133 318.677 4.843 6.485 5.589 15.104 1.963 22.315-3.605 7.211-10.987 11.776-19.072 11.776-16.149 0-34.069-0.469-52.672-0.939-19.776-0.533-40.405-1.067-60.565-1.067-100.075 0-119.296 15.616-121.792 24.917-5.952 21.973 11.157 55.147 50.88 98.667 51.755-20.181 122.325-30.421 210.176-30.421 86.123 0 165.781 9.771 216 17.6-1.173-60.843-41.045-102.4-83.008-146.133-8.789-9.152-17.493-18.219-25.792-27.435-54.571-60.48-113.067-122.027-169.664-181.525-56.875-59.84-115.712-121.664-168.96-180.928-5.483-6.059-6.976-14.741-3.883-22.336 3.093-7.552 10.24-12.715 18.411-13.205 60.821-3.733 124.288-38.144 185.707-71.467 68.011-36.885 138.304-75.051 209.856-75.051 30.421 0 58.731 6.677 85.781 20.288 2.347-33.557-6.528-64.683-25.963-89.664z" />
<glyph unicode="&#xe912;" glyph-name="quote" d="M861.576 486.852h-155.377c0 128.663 104.358 233.020 233.050 233.020 42.918 0 77.673 34.786 77.673 77.704 0 42.857-34.756 77.673-77.673 77.673-214.528 0-388.397-173.899-388.397-388.397v-310.724c0-85.835 69.572-155.347 155.347-155.347h155.377c85.805 0 155.347 69.542 155.347 155.347v155.347c0.030 85.805-69.542 155.377-155.347 155.377zM395.475 719.872c42.918 0 77.704 34.786 77.704 77.704 0 42.857-34.786 77.673-77.704 77.673-214.498 0-388.397-173.899-388.397-388.397v-310.724c0-85.835 69.572-155.347 155.377-155.347h155.347c85.805 0 155.377 69.542 155.377 155.347v155.347c0 85.835-69.602 155.377-155.377 155.377h-155.347c0 128.663 104.297 233.020 233.020 233.020z" />
<glyph unicode="&#xe913;" glyph-name="video-play" d="M511 960c-267.568 0-487.158-205.256-510-466.896v-90.208c22.842-261.64 242.432-466.896 510-466.896 282.77 0 512 229.23 512 512s-229.23 512-512 512zM513-20c-259.574 0-470 210.426-470 470s210.426 469 470 469 470-209.426 470-469-210.426-470-470-470zM372 688.5c0 0-30 10.5-29-14.5-1-25 0.5-421 0-452 0-27 7.2-29.4 29-14 29 16 398.6 231 398.6 231l-1.2 19.8-397.4 229.7zM704 447l-319-184.5v370.5l319-183.5v-2.5z" />
<glyph unicode="&#xe914;" glyph-name="icon-email" d="M960 108.885h-896c-35.285 0-64 28.715-64 64v550.229c0 35.285 28.715 64 64 64h896c35.285 0 64-28.715 64-64v-550.229c0-35.307-28.715-64-64-64zM64 744.448c-11.755 0-21.333-9.579-21.333-21.333v-550.229c0-11.776 9.579-21.333 21.333-21.333h896c11.776 0 21.333 9.557 21.333 21.333v550.229c0 11.755-9.557 21.333-21.333 21.333h-896zM512.064 303.125c-0.021 0-0.043 0-0.085 0-42.069 0.043-81.408 17.536-110.784 49.344l-342.144 369.195c-8 8.64-7.509 22.144 1.152 30.144 8.619 8 22.144 7.509 30.144-1.152l342.144-369.216c21.227-22.976 49.451-35.627 79.509-35.648 0.021 0 0.043 0 0.064 0 30.080 0 58.368 12.672 79.659 35.648l341.909 369.216c7.979 8.661 21.483 9.173 30.144 1.173 8.64-8 9.173-21.504 1.152-30.144l-341.909-369.237c-29.461-31.808-68.843-49.323-110.955-49.323zM61.696 151.381c-5.099 0-10.197 1.813-14.272 5.504-8.747 7.893-9.429 21.376-1.536 30.123l262.229 290.603c7.872 8.768 21.355 9.451 30.123 1.536 8.747-7.893 9.429-21.376 1.536-30.123l-262.251-290.603c-4.203-4.672-10.005-7.040-15.829-7.040zM962.325 151.381c-5.803 0-11.627 2.368-15.829 7.040l-262.251 290.603c-7.893 8.747-7.211 22.229 1.536 30.123 8.725 7.893 22.229 7.232 30.123-1.536l262.251-290.603c7.893-8.747 7.211-22.229-1.536-30.123-4.075-3.691-9.173-5.504-14.293-5.504z" />
<glyph unicode="&#xe915;" glyph-name="close" d="M36.447 953.748l981.311-981.311-30.17-30.17-981.311 981.311 30.17 30.17zM987.576 953.748l30.17-30.17-981.311-981.311-30.17 30.17 981.311 981.311z" />
<glyph unicode="&#xe916;" glyph-name="icon-plus" d="M0.021 469.333h1023.957v-42.667h-1023.957v42.667zM490.688 960h42.667v-1024h-42.667v1024z" />
<glyph unicode="&#xe917;" glyph-name="arrow-right-toggle" d="M777.312 503.168l-306.752 306.752c-28.096 28.096-74.144 28.096-102.24 0l-25.6-25.6c-28.096-28.064-28.096-74.112 0-102.208l234.048-234.112-234.080-234.080c-28.096-28.096-28.096-74.144 0-102.208l25.6-25.6c28.096-28.128 74.144-28.128 102.24 0l306.752 306.784c15.104 15.072 21.824 35.296 20.704 55.136 1.152 19.808-5.568 40.032-20.672 55.136z" />
<glyph unicode="&#xe918;" glyph-name="menu" d="M0 783.275h1024v-42.667h-1024v42.667zM0 469.312h1024v-42.667h-1024v42.667zM0 155.392h1024v-42.667h-1024v42.667z" />
<glyph unicode="&#xe919;" glyph-name="menu-2" d="M916.523-64h-809.003c-59.285 0-107.52 48.256-107.52 107.541v26.283c0 59.264 48.235 107.499 107.52 107.499h809.003c59.264 0 107.477-48.235 107.477-107.499v-26.283c0-59.285-48.213-107.541-107.477-107.541zM107.52 134.656c-35.755 0-64.853-29.077-64.853-64.832v-26.283c0-35.776 29.099-64.875 64.853-64.875h809.003c35.733 0 64.811 29.099 64.811 64.875v26.283c0 35.755-29.077 64.832-64.811 64.832h-809.003zM916.523 327.317h-809.003c-59.285 0-107.52 48.256-107.52 107.541v26.325c0 59.264 48.235 107.499 107.52 107.499h809.003c59.264 0 107.477-48.235 107.477-107.499v-26.325c0-59.307-48.213-107.541-107.477-107.541zM107.52 526.016c-35.755 0-64.853-29.077-64.853-64.832v-26.325c0-35.776 29.099-64.875 64.853-64.875h809.003c35.733 0 64.811 29.099 64.811 64.875v26.325c0 35.755-29.077 64.832-64.811 64.832h-809.003zM916.523 718.677h-809.003c-59.285 0-107.52 48.213-107.52 107.477v26.347c0 59.264 48.235 107.499 107.52 107.499h809.003c59.264 0 107.477-48.235 107.477-107.499v-26.304c0-59.285-48.213-107.52-107.477-107.52zM107.52 917.333c-35.755 0-64.853-29.077-64.853-64.832v-26.347c0-35.733 29.099-64.811 64.853-64.811h809.003c35.733 0 64.811 29.099 64.811 64.853v26.304c0 35.755-29.077 64.832-64.811 64.832h-809.003z" />
<glyph unicode="&#xe91a;" glyph-name="fit-to" d="M17.067-64c-4.403 0-8.772 1.673-12.117 5.052-6.622 6.656-6.554 17.51 0.102 24.132l331.503 328.533c6.69 6.588 17.476 6.554 24.132-0.068 6.622-6.69 6.588-17.545-0.102-24.201l-331.503-328.533c-3.345-3.277-7.68-4.915-12.015-4.915zM691.746 607.642c-4.335 0-8.67 1.638-12.049 4.949-6.69 6.622-6.758 17.442-0.137 24.132l315.221 318.191c6.588 6.724 17.476 6.758 24.132 0.137s6.724-17.442 0.137-24.132l-315.221-318.225c-3.379-3.345-7.68-5.052-12.083-5.052zM1006.933 738.133c-9.387 0-17.067 7.646-17.067 17.067v170.667h-170.667c-9.387 0-17.067 7.646-17.067 17.067s7.68 17.067 17.067 17.067h187.733c9.387 0 17.067-7.646 17.067-17.067v-187.733c0-9.421-7.68-17.067-17.067-17.067zM204.8-64h-187.733c-9.421 0-17.067 7.68-17.067 17.067v187.733c0 9.387 7.646 17.067 17.067 17.067s17.067-7.68 17.067-17.067v-170.667h170.667c9.421 0 17.067-7.68 17.067-17.067s-7.646-17.067-17.067-17.067z" />
<glyph unicode="&#xe91b;" glyph-name="full-screen" d="M17.067-64c-4.403 0-8.772 1.673-12.117 5.052-6.622 6.656-6.554 17.51 0.102 24.132l331.503 328.533c6.69 6.588 17.476 6.554 24.132-0.068 6.622-6.69 6.588-17.545-0.102-24.201l-331.503-328.533c-3.345-3.277-7.68-4.915-12.015-4.915zM691.746 607.642c-4.335 0-8.67 1.638-12.049 4.949-6.69 6.622-6.758 17.442-0.137 24.132l315.221 318.191c6.588 6.724 17.476 6.758 24.132 0.137s6.724-17.442 0.137-24.132l-315.221-318.225c-3.379-3.345-7.68-5.052-12.083-5.052zM1006.933-64c-4.471 0-9.011 1.775-12.322 5.257l-315.187 328.533c-6.519 6.793-6.349 17.613 0.546 24.132 6.793 6.485 17.613 6.315 24.132-0.546l315.187-328.533c6.519-6.793 6.349-17.613-0.546-24.132-3.311-3.14-7.543-4.71-11.81-4.71zM348.604 607.642c-4.267 0-8.533 1.57-11.81 4.745l-331.537 318.225c-6.793 6.519-7.031 17.34-0.512 24.132 6.554 6.793 17.34 7.031 24.132 0.512l331.537-318.225c6.793-6.519 7.031-17.34 0.512-24.132-3.345-3.482-7.817-5.257-12.322-5.257zM1006.933 738.133c-9.387 0-17.067 7.646-17.067 17.067v170.667h-170.667c-9.387 0-17.067 7.646-17.067 17.067s7.68 17.067 17.067 17.067h187.733c9.387 0 17.067-7.646 17.067-17.067v-187.733c0-9.421-7.68-17.067-17.067-17.067zM1006.933-64h-187.733c-9.387 0-17.067 7.68-17.067 17.067s7.68 17.067 17.067 17.067h170.667v170.667c0 9.387 7.68 17.067 17.067 17.067s17.067-7.68 17.067-17.067v-187.733c0-9.387-7.68-17.067-17.067-17.067zM17.067 738.133c-9.421 0-17.067 7.646-17.067 17.067v187.733c0 9.421 7.646 17.067 17.067 17.067h187.733c9.421 0 17.067-7.646 17.067-17.067s-7.646-17.067-17.067-17.067h-170.667v-170.667c0-9.421-7.646-17.067-17.067-17.067zM204.8-64h-187.733c-9.421 0-17.067 7.68-17.067 17.067v187.733c0 9.387 7.646 17.067 17.067 17.067s17.067-7.68 17.067-17.067v-170.667h170.667c9.421 0 17.067-7.68 17.067-17.067s-7.646-17.067-17.067-17.067z" />
<glyph unicode="&#xe91c;" glyph-name="arrow-left2" d="M167.488 448.043l-1.643 1.664 241.344 241.344 30.165-30.165-188.075-188.096h-7.957v-42.667h0.896l195.008-195.008-30.165-30.165-241.323 241.344z" />
<glyph unicode="&#xe91d;" glyph-name="arrow-left3" d="M241.003 426.603c-5.781 0-11.584 2.368-15.787 7.040-7.872 8.704-7.211 22.165 1.493 30.037l541.995 490.816c8.704 7.915 22.208 7.253 30.037-1.493 7.915-8.704 7.253-22.165-1.493-30.080l-541.952-490.773c-4.075-3.712-9.195-5.547-14.293-5.547zM782.997-64.021c-5.12 0-10.24 1.835-14.293 5.547l-541.995 490.624c-8.704 7.872-9.365 21.333-1.493 30.037 7.872 8.747 21.333 9.451 30.080 1.493l541.952-490.581c8.747-7.872 9.408-21.376 1.493-30.080-4.203-4.629-9.941-7.040-15.744-7.040z" />
<glyph unicode="&#xe91e;" glyph-name="arrow-right2" d="M856.512 447.957l1.643-1.621-241.387-241.387-30.165 30.165 188.075 188.096h7.979v42.667h-0.875l-195.051 195.008 30.165 30.165 241.365-241.344z" />
<glyph unicode="&#xe91f;" glyph-name="arrow-right3" d="M782.976 426.624c-5.077 0-10.219 1.792-14.251 5.504l-542.037 490.773c-8.704 7.893-9.365 21.355-1.493 30.059 7.915 8.747 21.376 9.408 30.080 1.493l541.995-490.752c8.747-7.915 9.408-21.376 1.493-30.080-4.203-4.672-9.941-6.997-15.787-6.997zM241.024-64c-5.824 0-11.627 2.368-15.829 6.997-7.872 8.704-7.168 22.208 1.493 30.080l542.037 490.624c8.661 7.915 22.165 7.211 30.037-1.493 7.915-8.704 7.211-22.208-1.493-30.080l-541.995-490.624c-4.075-3.669-9.195-5.504-14.251-5.504z" />
<glyph unicode="&#xe920;" glyph-name="start" d="M105.54-59.733c-2.867 0-5.769 0.717-8.397 2.15-5.359 3.038-8.67 8.738-8.67 14.916v981.333c0 6.144 3.311 11.844 8.67 14.848 5.359 3.038 11.947 2.935 17.203-0.239l812.954-490.598c5.086-3.072 8.226-8.602 8.226-14.609 0-5.973-3.14-11.537-8.226-14.609l-812.954-490.735c-2.697-1.673-5.769-2.458-8.806-2.458zM122.607 908.459v-920.883l762.88 460.493-762.88 460.39z" />
<glyph unicode="&#xe921;" glyph-name="heart" d="M934.176 791.52c-116.128 115.072-301.824 117.472-422.112 9.216-120.32 108.256-305.952 105.856-422.144-9.216-119.712-118.528-119.712-310.688 0-429.28 34.208-33.888 353.696-350.112 353.696-350.112 37.856-37.504 99.072-37.504 136.896 0 0 0 349.824 346.304 353.696 350.112 119.744 118.592 119.744 310.752-0.032 429.28zM888.576 407.424l-353.696-350.112c-12.576-12.512-33.088-12.512-45.6 0l-353.696 350.112c-94.4 93.44-94.4 245.472 0 338.912 91.008 90.080 237.312 93.248 333.088 7.104l43.392-39.040 43.36 39.040c95.808 86.144 242.112 83.008 333.12-7.104 94.4-93.408 94.4-245.44 0.032-338.912zM296.096 719.968c8.864 0 16-7.168 16-16s-7.168-16-16-16h-0.032c-57.408 0-103.968-46.56-103.968-103.968v-0.032c0-8.832-7.168-16-16-16s-16 7.168-16 16v0c0 75.072 60.832 135.904 135.872 135.968 0.064 0 0.064 0.032 0.128 0.032z" />
<glyph unicode="&#xe922;" glyph-name="retweet" d="M256.416 254.944v255.104h125.824l-188.864 220.544-192.832-220.576h126.304v-380.672h558.976l-125.536 125.568h-303.872zM897.152 351.968v382.656h-560.992l127.552-127.52h303.872v-255.136h-125.824l188.832-220.576 192.832 220.576h-126.272z" />
<glyph unicode="&#xe923;" glyph-name="calendar" d="M938.688 864h-138.688v64c0 17.696-14.304 32-32 32s-32-14.304-32-32v-64h-192v64c0 17.696-14.336 32-32 32s-32-14.304-32-32v-64h-192v64c0 17.696-14.336 32-32 32s-32-14.304-32-32v-64h-138.656c-47.136 0-85.344-38.176-85.344-85.312v-757.344c0-47.136 38.208-85.344 85.344-85.344h853.344c47.136 0 85.312 38.208 85.312 85.344v757.344c0 47.136-38.176 85.312-85.312 85.312zM960 21.344c0-11.776-9.568-21.344-21.312-21.344h-853.344c-11.776 0-21.344 9.568-21.344 21.344v757.344c0 11.744 9.568 21.312 21.344 21.312h138.656v-64c0-17.696 14.336-32 32-32s32 14.304 32 32v64h192v-64c0-17.696 14.336-32 32-32s32 14.304 32 32v64h192v-64c0-17.696 14.304-32 32-32s32 14.304 32 32v64h138.688c11.744 0 21.312-9.568 21.312-21.312v-757.344zM224 576h128v-96h-128zM224 416h128v-96h-128zM224 256h128v-96h-128zM448 256h128v-96h-128zM448 416h128v-96h-128zM448 576h128v-96h-128zM672 256h128v-96h-128zM672 416h128v-96h-128zM672 576h128v-96h-128z" />
<glyph unicode="&#xe924;" glyph-name="link" d="M440.236 324.234c-13.31 0-26.616 5.076-36.77 15.23-95.134 95.136-95.134 249.934 0 345.070l192 192c46.088 46.086 107.36 71.466 172.534 71.466s126.448-25.38 172.536-71.464c95.132-95.136 95.132-249.934 0-345.070l-87.766-87.766c-20.308-20.308-53.23-20.308-73.54 0-20.306 20.306-20.306 53.232 0 73.54l87.766 87.766c54.584 54.586 54.584 143.404 0 197.99-26.442 26.442-61.6 41.004-98.996 41.004s-72.552-14.562-98.996-41.006l-192-191.998c-54.586-54.586-54.586-143.406 0-197.992 20.308-20.306 20.306-53.232 0-73.54-10.15-10.152-23.462-15.23-36.768-15.23zM256-52c-65.176 0-126.45 25.38-172.534 71.464-95.134 95.136-95.134 249.934 0 345.070l87.764 87.764c20.308 20.306 53.234 20.306 73.54 0 20.308-20.306 20.308-53.232 0-73.54l-87.764-87.764c-54.586-54.586-54.586-143.406 0-197.992 26.44-26.44 61.598-41.002 98.994-41.002s72.552 14.562 98.998 41.006l192 191.998c54.584 54.586 54.584 143.406 0 197.992-20.308 20.308-20.306 53.232 0 73.54 20.306 20.306 53.232 20.306 73.54-0.002 95.132-95.134 95.132-249.932 0.002-345.068l-192.002-192c-46.090-46.088-107.364-71.466-172.538-71.466z" />
<glyph unicode="&#xe925;" glyph-name="play" d="M236.416 846.55c-6.528 4.267-14.507 6.784-23.083 6.784-23.552 0-42.667-19.115-42.667-42.667v-768c-0.043-7.765 2.133-15.872 6.784-23.083 12.757-19.84 39.125-25.557 58.965-12.8l597.333 384c4.864 3.072 9.344 7.424 12.8 12.8 12.757 19.84 6.997 46.208-12.8 58.965zM256 732.502l475.776-305.835-475.776-305.835z" />
<glyph unicode="&#xe926;" glyph-name="twitter-grid" d="M767.444 689.531c-4.236-0.152-8.273 1.803-10.781 5.222-79.366 108.211-281.018-4.515-236.729-127.216 3.063-8.486-3.379-17.393-12.398-17.141-90.342 2.528-170.651 33.693-239.908 83.743-24.199 17.488-45.309 36.091-63.233 54.631-3.606 3.73-6.835 7.191-9.681 10.34-22.96-48.399-12.81-94.161 19.033-136.169 6.952-9.171 14.415-17.355 21.861-24.416 4.407-4.179 7.759-7.002 9.525-8.349 9.401-7.17 4.886-22.163-6.911-22.949-6.784-0.452-14.097 0.030-21.887 1.308-9.81 1.61-20.095 4.429-30.537 8.111-1.089 0.384-2.155 0.768-3.197 1.151 5.028-41.887 24.571-72.472 54.449-94.069 12.318-8.904 25.575-15.62 38.825-20.421 7.866-2.851 13.858-4.405 17.007-4.979 13.374-2.436 14.229-21.287 1.132-24.926-17.026-4.73-34.18-6.453-50.291-6.132 12.261-22.787 27.601-40.261 45.368-53.128 27.059-19.596 54.564-25.934 74.046-25.474 12.385 0.566 18.318-14.834 8.83-22.659-19.608-16.172-41.4-29.29-64.977-39.609-38.111-16.68-77.194-25.067-113.483-27.778 49.878-21.642 110.345-37.257 161.921-40.814 90.643-6.251 203.937 24.849 289.316 94.779 78.924 64.643 121.305 150.318 142.617 239.624 2.477 10.378 4.55 23.089 6.231 37.579 1.809 15.591 3.071 32.362 3.878 49.141 0.485 10.071 0.709 17.885 0.772 22.294 0.058 4.112 2.089 7.946 5.458 10.305 9.624 6.737 18.988 14.622 28.022 23.426 5.561 5.42 10.855 11.043 15.856 16.767-6.743-1.732-13.409-3.15-19.965-4.278-11.897-2.047-20.949-2.773-26.255-2.807-12.761-0.083-17.771 16.514-7.097 23.507 10.636 6.967 20.087 15.132 28.424 24.262 4.956 5.427 9.397 11.051 13.347 16.77-31.12-13.652-54.209-19.129-68.588-19.645zM772.703 715.845c3.979 0.667 9.392 1.836 16.204 3.714 19.849 5.472 43.327 14.957 70.258 29.458 10.106 5.442 21.714-4.142 18.283-15.096-4.599-14.686-15.293-35.693-34.118-56.847 11.416 3.049 23.077 7.107 34.757 12.312 11.503 5.126 22.717-7.695 16.104-18.413-2.199-3.565-6.253-9.566-12.005-17.201-9.535-12.656-20.445-25.306-32.597-37.15-8.334-8.123-16.971-15.578-25.896-22.227-0.128-4.456-0.337-10.117-0.654-16.696-0.833-17.312-2.137-34.633-4.019-50.861-1.788-15.417-4.017-29.078-6.76-40.572-22.49-94.244-67.183-184.594-151.297-253.486-90.74-74.32-210.48-107.19-307.299-100.513-73.015 5.036-161.887 32.591-219.688 68.277-11.591 7.156-5.467 25.062 8.079 23.62 0.879-0.094 2.744-0.249 5.506-0.409 44.29-2.568 98.004 3.705 149.162 26.095 11.467 5.019 22.446 10.75 32.885 17.226-17.529 4.377-36.632 12.641-55.535 26.331-26.378 19.103-47.991 46.621-63.188 83.55-3.846 9.345 4.146 19.252 14.094 17.47 0.912-0.163 2.876-0.445 5.734-0.738 2.133-0.219 4.302-0.398 6.502-0.535-5.143 2.975-10.21 6.244-15.162 9.824-40.759 29.461-65.637 73.7-66.323 134.45-0.108 9.55 9.903 15.85 18.467 11.621 4.060-2.005 11.234-5.131 20.114-8.262 2.001-0.706 3.99-1.374 5.963-2.001-2.347 2.799-4.661 5.695-6.929 8.688-41.099 54.22-51.614 116.436-11.781 180.889 4.733 7.658 15.684 8.167 21.107 0.98 3.302-4.377 10.056-12.362 20.129-22.782 16.92-17.502 36.908-35.116 59.822-51.675 60.81-43.945 130.41-72.369 208.084-78.020-29.585 140.095 186.264 256.301 281.995 138.977zM912.543-32.064c43.919 0 79.521 35.603 79.521 79.521v801.086c0 43.919-35.603 79.522-79.521 79.522h-801.086c-43.919 0-79.522-35.603-79.522-79.522v-801.086c0-43.918 35.603-79.521 79.522-79.521h801.086zM912.543-57.664h-801.086c-58.057 0-105.122 47.064-105.122 105.121v801.086c0 58.057 47.065 105.122 105.122 105.122h801.086c58.057 0 105.121-47.064 105.121-105.122v-801.086c0-58.057-47.064-105.121-105.121-105.121zM297.622 848.418h246.021c7.069 0 12.8 5.731 12.8 12.8s-5.731 12.8-12.8 12.8h-246.021c-7.069 0-12.8-5.731-12.8-12.8s5.731-12.8 12.8-12.8zM618.865 848.418h66.543c7.069 0 12.8 5.731 12.8 12.8s-5.731 12.8-12.8 12.8h-66.543c-7.069 0-12.8-5.731-12.8-12.8s5.731-12.8 12.8-12.8z" />
<glyph unicode="&#xe927;" glyph-name="piechart3" d="M489.739 481.391v-445.217c0-12.294-9.967-22.261-22.261-22.261-258.181 0-467.478 209.298-467.478 467.478s209.297 467.478 467.478 467.478c249.293 0 454.019-195.838 466.327-444.115 0.63-12.712-9.506-23.363-22.234-23.363h-421.833zM445.217 503.652c0 12.294 9.967 22.261 22.261 22.261h420.061c-22.328 213.425-202.43 378.435-420.061 378.435-233.593 0-422.957-189.364-422.957-422.957 0-226.125 177.451-410.805 400.696-422.381v444.642zM556.522-52.87c-12.294 0-22.261 9.967-22.261 22.261v89.043c0 12.294 9.967 22.261 22.261 22.261h266.319c21.4 0 30.474-27.249 13.345-40.078-80.52-60.307-177.633-93.487-279.664-93.487zM744.753 36.174h-165.97v-43.938c58.398 3.069 114.619 18.181 165.97 43.938zM556.522 36.174c-12.294 0-22.261 9.967-22.261 22.261v89.043c0 12.294 9.967 22.261 22.261 22.261h355.568c18.36 0 28.827-20.975 17.787-35.646-26.67-35.441-58.184-66.882-93.691-93.476-3.851-2.884-8.533-4.443-13.345-4.443h-266.319zM578.783 80.696h236.541c17.476 13.565 33.838 28.448 48.958 44.522h-285.499v-44.522zM992.799 347.826c14.074 0 24.616-12.897 21.816-26.69-6.473-31.886-16.477-63.121-29.774-93.533-3.544-8.105-11.55-13.343-20.396-13.343h-407.923c-12.294 0-22.261 9.967-22.261 22.261v89.043c0 12.294 9.967 22.261 22.261 22.261h436.277zM578.783 303.304v-44.522h370.843c5.853 14.671 10.856 29.519 14.982 44.522h-385.825zM1001.739 436.87c12.294 0 22.261-9.967 22.261-22.261 0-31.59-3.167-62.846-9.385-93.473-2.107-10.375-11.229-17.831-21.816-17.831h-436.277c-12.294 0-22.261 9.967-22.261 22.261v89.043c0 12.294 9.967 22.261 22.261 22.261h445.217zM578.783 392.348v-44.522h395.427c2.339 14.711 3.907 29.564 4.688 44.522h-400.115zM534.261 236.522c0 12.294 9.967 22.261 22.261 22.261h407.923c16.051 0 26.827-16.472 20.396-31.179-14.336-32.786-32.784-64.035-54.963-93.51-4.205-5.589-10.793-8.876-17.788-8.876h-355.568c-12.294 0-22.261 9.967-22.261 22.261v89.043zM578.783 169.739h322.032c10.323 14.432 19.656 29.284 27.952 44.522h-349.984v-44.522z" />
<glyph unicode="&#xe928;" glyph-name="features" d="M896-17.455c25.706 0 46.545 20.839 46.545 46.545v837.818c0 25.706-20.839 46.545-46.545 46.545h-768c-25.706 0-46.545-20.839-46.545-46.545v-837.818c0-25.706 20.839-46.545 46.545-46.545h768zM896-64h-768c-51.413 0-93.091 41.678-93.091 93.091v837.818c0 51.413 41.678 93.091 93.091 93.091h768c51.413 0 93.091-41.678 93.091-93.091v-837.818c0-51.413-41.678-93.091-93.091-93.091zM221.091 750.545v-93.091h139.636v93.091h-139.636zM197.818 797.091h186.182c12.853 0 23.273-10.42 23.273-23.273v-139.636c0-12.853-10.42-23.273-23.273-23.273h-186.182c-12.853 0-23.273 10.42-23.273 23.273v139.636c0 12.853 10.42 23.273 23.273 23.273zM523.636 727.273h302.545c12.853 0 23.273 10.42 23.273 23.273s-10.42 23.273-23.273 23.273h-302.545c-12.853 0-23.273-10.42-23.273-23.273s10.42-23.273 23.273-23.273zM523.636 634.182h302.545c12.853 0 23.273 10.42 23.273 23.273s-10.42 23.273-23.273 23.273h-302.545c-12.853 0-23.273-10.42-23.273-23.273s10.42-23.273 23.273-23.273zM663.273 401.455h139.636v93.091h-139.636v-93.091zM640 541.091h186.182c12.853 0 23.273-10.42 23.273-23.273v-139.636c0-12.853-10.42-23.273-23.273-23.273h-186.182c-12.853 0-23.273 10.42-23.273 23.273v139.636c0 12.853 10.42 23.273 23.273 23.273zM500.364 424.727h-302.545c-12.853 0-23.273-10.42-23.273-23.273s10.42-23.273 23.273-23.273h302.545c12.853 0 23.273 10.42 23.273 23.273s-10.42 23.273-23.273 23.273zM500.364 517.818h-302.545c-12.853 0-23.273-10.42-23.273-23.273s10.42-23.273 23.273-23.273h302.545c12.853 0 23.273 10.42 23.273 23.273s-10.42 23.273-23.273 23.273zM221.091 238.545v-93.091h139.636v93.091h-139.636zM197.818 285.091h186.182c12.853 0 23.273-10.42 23.273-23.273v-139.636c0-12.853-10.42-23.273-23.273-23.273h-186.182c-12.853 0-23.273 10.42-23.273 23.273v139.636c0 12.853 10.42 23.273 23.273 23.273zM523.636 215.273h302.545c12.853 0 23.273 10.42 23.273 23.273s-10.42 23.273-23.273 23.273h-302.545c-12.853 0-23.273-10.42-23.273-23.273s10.42-23.273 23.273-23.273zM523.636 122.182h302.545c12.853 0 23.273 10.42 23.273 23.273s-10.42 23.273-23.273 23.273h-302.545c-12.853 0-23.273-10.42-23.273-23.273s10.42-23.273 23.273-23.273z" />
<glyph unicode="&#xe929;" glyph-name="slider2" d="M801.391 136.348c24.589 0 44.522 19.933 44.522 44.522v534.261c0 24.589-19.933 44.522-44.522 44.522h-578.783c-24.589 0-44.522-19.933-44.522-44.522v-534.261c0-24.589 19.933-44.522 44.522-44.522h578.783zM801.391 91.826h-578.783c-49.177 0-89.043 39.866-89.043 89.043v534.261c0 49.177 39.866 89.043 89.043 89.043h578.783c49.177 0 89.043-39.866 89.043-89.043v-534.261c0-49.177-39.866-89.043-89.043-89.043zM467.478 549.159v-202.318l140.066 101.159-140.066 101.159zM458.251 610.742l200.348-144.696c12.303-8.886 12.303-27.207 0-36.093l-200.348-144.696c-14.722-10.632-35.294-0.113-35.294 18.046v289.391c0 18.16 20.573 28.679 35.294 18.046zM941.996 738.534l37.482 12.494v-606.056l-37.482 12.494c-11.663 3.888-24.27-2.416-28.158-14.079s2.416-24.27 14.079-28.158l37.482-12.494c28.829-9.61 58.601 11.848 58.601 42.237v606.056c0 30.389-29.772 51.847-58.601 42.237l-37.482-12.494c-11.663-3.888-17.967-16.495-14.079-28.158s16.495-17.967 28.158-14.079zM82.004 157.466l-37.482-12.494v606.055l37.482-12.494c11.663-3.888 24.27 2.416 28.158 14.079s-2.416 24.27-14.079 28.158l-37.482 12.494c-28.829 9.61-58.601-11.848-58.601-42.237v-606.056c0-30.389 29.772-51.847 58.601-42.237l37.482 12.494c11.663 3.888 17.967 16.495 14.079 28.158s-16.495 17.967-28.158 14.079z" />
<glyph unicode="&#xe92a;" glyph-name="gallery" d="M784.34-9.532c12.033 0 21.787 9.754 21.787 21.787v697.191c0 12.033-9.754 21.787-21.787 21.787h-697.191c-12.033 0-21.787-9.754-21.787-21.787v-697.191c0-12.033 9.754-21.787 21.787-21.787h697.191zM784.34-53.106h-697.191c-36.098 0-65.362 29.263-65.362 65.362v697.191c0 36.098 29.263 65.362 65.362 65.362h697.191c36.098 0 65.362-29.263 65.362-65.362v-697.191c0-36.098-29.263-65.362-65.362-65.362zM832.264 425.774c-97.574 19.876-179.12-36.655-311.127-179.414-131.945-142.691-160.912-168.743-203.043-168.743-12.033 0-21.787-9.754-21.787-21.787s9.754-21.787 21.787-21.787c36.268 0 73.248 20.694 117.515 60.506 17.225 15.491 35.449 33.739 57.855 57.566 13.088 13.918 60.458 65.519 59.667 64.662 121.204 131.075 194.367 181.796 270.436 166.3 11.791-2.402 23.296 5.209 25.698 17s-5.209 23.296-17 25.698zM57.429 256.888c2.784 2.294 9.597 6.548 20.305 11.052 84.864 35.698 205.428 7.106 362.691-140.83 8.764-8.245 22.553-7.823 30.797 0.941s7.823 22.553-0.941 30.797c-169.196 159.162-307.772 192.025-409.443 149.257-14.825-6.236-25.213-12.722-31.119-17.589-9.286-7.652-10.612-21.383-2.96-30.669s21.383-10.612 30.669-2.96zM283.234 426.213c-60.164 0-108.936 48.772-108.936 108.936s48.772 108.936 108.936 108.936c60.164 0 108.936-48.772 108.936-108.936s-48.772-108.936-108.936-108.936zM283.234 469.787c36.098 0 65.362 29.263 65.362 65.362s-29.263 65.362-65.362 65.362c-36.098 0-65.362-29.263-65.362-65.362s29.263-65.362 65.362-65.362zM152.511 796.596c0 12.033 9.754 21.787 21.787 21.787h697.191c12.033 0 21.787-9.754 21.787-21.787v-697.191c0-12.033-9.754-21.787-21.787-21.787v-43.574c36.098 0 65.362 29.263 65.362 65.362v697.191c0 36.098-29.263 65.362-65.362 65.362h-697.191c-36.098 0-65.362-29.263-65.362-65.362h43.574zM239.66 883.745c0 12.033 9.754 21.787 21.787 21.787h697.191c12.033 0 21.787-9.754 21.787-21.787v-697.191c0-12.033-9.754-21.787-21.787-21.787v-43.574c36.098 0 65.362 29.263 65.362 65.362v697.191c0 36.098-29.263 65.362-65.362 65.362h-697.191c-36.098 0-65.362-29.263-65.362-65.362h43.574z" />
<glyph unicode="&#xe92b;" glyph-name="team4" d="M739.556 573.156c-106.824 0-193.422 86.598-193.422 193.422s86.598 193.422 193.422 193.422c106.824 0 193.422-86.598 193.422-193.422s-86.598-193.422-193.422-193.422zM739.556 618.667c81.689 0 147.911 66.222 147.911 147.911s-66.222 147.911-147.911 147.911c-81.689 0-147.911-66.222-147.911-147.911s66.222-147.911 147.911-147.911zM978.489 379.733v-420.978c0-12.568-10.188-22.756-22.756-22.756h-432.356c-12.568 0-22.756 10.188-22.756 22.756v420.978c0 131.959 106.974 238.933 238.933 238.933s238.933-106.974 238.933-238.933zM932.978 379.733c0 106.824-86.598 193.422-193.422 193.422s-193.422-86.598-193.422-193.422v-398.222h386.844v398.222zM432.356 611.481c-82.020 0-148.51 66.49-148.51 148.51s66.49 148.51 148.51 148.51c82.020 0 148.51-66.49 148.51-148.51s-66.49-148.51-148.51-148.51zM432.356 656.992c56.885 0 102.999 46.114 102.999 102.999s-46.114 102.999-102.999 102.999c-56.885 0-102.999-46.114-102.999-102.999s46.114-102.999 102.999-102.999zM295.822 474.947c0 75.405 61.128 136.533 136.533 136.533 50.77 0 96.591-27.936 120.264-71.832l40.057 21.603c-31.539 58.48-92.652 95.74-160.321 95.74-100.54 0-182.044-81.504-182.044-182.044v-311.392c0-12.568 10.188-22.756 22.756-22.756h250.311v45.511h-227.556v288.636zM204.8 636.274c-68.89 0-124.735 55.846-124.735 124.735s55.846 124.735 124.735 124.735c68.89 0 124.735-55.846 124.735-124.735s-55.846-124.735-124.735-124.735zM204.8 681.785c43.754 0 79.224 35.47 79.224 79.224s-35.47 79.224-79.224 79.224c-43.754 0-79.224-35.47-79.224-79.224s35.47-79.224 79.224-79.224zM91.022 529.855c0 57.071 53.232 106.419 113.778 106.419 37.293 0 73.776-19.263 95.197-49.595l37.175 26.254c-29.874 42.3-80.16 68.852-132.372 68.852-84.943 0-159.289-68.921-159.289-151.93v-252.522c0-12.568 10.188-22.756 22.756-22.756h204.8v45.511h-182.044v229.766z" />
<glyph unicode="&#xe92c;" glyph-name="team6" d="M402.708 288.238c-83.875 0-158.44 89.034-182.904 164.14-4.615 2.873-4.85 3.020-6.311 4-4.961 3.328-6.927 4.91-9.609 9.652-32.406 57.347-30.959 98.393-2.894 120.766 1.502 1.197 3.005 2.281 4.497 3.258 0.041 23.023 2.25 49.061 8.068 74.54 0.641 2.808 1.322 5.577 2.069 8.396 4.503 16.716 15.719 40.232 36.61 63.655 34.61 38.804 84.405 62.106 150.473 62.106s115.862-23.302 150.473-62.106c20.892-23.423 32.107-46.94 36.634-63.746 0.723-2.729 1.404-5.498 2.045-8.306 5.818-25.479 8.027-51.517 8.068-74.54 1.492-0.978 2.995-2.061 4.497-3.258 28.065-22.373 29.512-63.419-2.898-120.772-2.678-4.735-4.644-6.318-9.605-9.646-1.461-0.98-1.695-1.127-5.704-3.622-25.092-75.51-99.648-164.518-183.51-164.518zM242.219 489.752c3.199-1.995 4.963-3.141 6.669-4.373 1.414-1.021 2.66-2.014 3.865-3.147 3.085-2.901 5.335-5.814 6.802-10.879 17.246-59.916 81.693-139.541 143.153-139.541s125.908 79.624 143.164 139.576c1.457 5.030 3.707 7.943 6.792 10.844 1.205 1.133 2.451 2.126 3.865 3.147 1.705 1.231 3.47 2.378 6.184 4.071 3.821 2.378 4.102 2.555 4.938 3.116-1.781-1.195-1.903-1.293-4.056-5.099 22.964 40.639 22.341 58.343 13.669 65.256-1.667 1.329-3.321 1.971-3.336 1.974-10.784 1.984-18.413 11.674-17.812 22.622 0.017 0.295 0.058 1.251 0.098 2.585 0.665 22.238-0.997 49.422-6.834 74.989-0.531 2.327-1.093 4.612-1.662 6.761-0.596 2.212-2.303 6.976-5.376 13.42-5.283 11.077-12.436 22.204-21.678 32.566-26.51 29.722-64.577 47.536-117.954 47.536s-91.444-17.814-117.954-47.536c-9.242-10.362-16.396-21.488-21.678-32.566-3.073-6.444-4.781-11.208-5.352-13.33-0.593-2.239-1.155-4.524-1.686-6.851-5.838-25.567-7.499-52.751-6.834-74.989 0.040-1.334 0.081-2.29 0.098-2.585 0.601-10.949-7.028-20.638-17.812-22.622-0.015-0.003-1.669-0.645-3.336-1.974-8.391-6.69-9.247-23.483 11.51-61.377 0.576-0.36 1.374-0.857 2.557-1.593zM744.908 59.133c-22.103-3.853-47.614-7.712-76.173-11.318-81.723-10.318-171.358-16.512-266.026-16.512s-184.303 6.194-266.026 16.512c-28.559 3.606-54.070 7.465-76.173 11.318-2.904 0.506-5.668 0.998-8.29 1.475 10.418 110.098 65.186 166.188 168.426 198.768 18.931 5.976 36.569 13.297 52.895 21.673 28.611 14.68 48.342 29.597 58.982 40.137 8.549 8.468 8.614 22.263 0.145 30.811s-22.263 8.614-30.811 0.145c-1.619-1.604-5.425-4.931-11.363-9.421-10.257-7.755-22.555-15.572-36.844-22.903-14.193-7.282-29.572-13.665-46.118-18.888-125.192-39.508-193.384-114.639-200.158-257.011-0.506-10.644 6.76-20.092 17.177-22.335 1.344-0.289 3.855-0.806 7.49-1.517 5.976-1.169 12.987-2.467 20.987-3.861 22.761-3.968 48.946-7.929 78.198-11.622 83.454-10.537 174.893-16.855 271.485-16.855s188.031 6.319 271.485 16.855c29.252 3.693 55.437 7.654 78.198 11.622 8 1.395 15.010 2.693 20.987 3.861 3.635 0.711 6.146 1.227 7.49 1.517 10.417 2.243 17.684 11.691 17.177 22.335-6.774 142.372-74.965 217.503-200.159 257.012-16.545 5.223-31.924 11.606-46.117 18.888-14.289 7.331-26.587 15.149-36.844 22.903-5.939 4.49-9.744 7.817-11.364 9.421-8.549 8.468-22.343 8.403-30.811-0.145s-8.403-22.343 0.145-30.811c10.64-10.54 30.37-25.457 58.982-40.137 16.325-8.376 33.963-15.697 52.893-21.672 103.241-32.581 158.009-88.67 168.427-198.769-2.621-0.476-5.386-0.969-8.29-1.475zM776.518 439.434c12.050 0.069 17.455 0.142 24.401 0.397 43.098 1.583 71.273 9.681 89.167 33.539 10.098 13.464 14.766 27.769 14.014 42.825-0.665 13.315-5.276 25.906-13.637 40.666-4.512 7.965-23.808 37.719-22.524 35.675-2.377 3.782-4.496 7.272-6.471 10.678-27.708 47.772-36.814 73.931-40.723 107.102-0.41 3.475-0.76 6.828-1.31 12.384-0.438 4.456-0.661 6.701-0.909 9.116-11.384 110.746-77.54 172.766-180.119 179.673h-2.927c-90.339-6.083-153.164-55.147-174.133-143.708-2.772-11.709 4.472-23.449 16.181-26.221s23.449 4.472 26.221 16.181c16.284 68.775 62.098 104.935 133.195 110.168 80.784-5.946 129.106-51.727 138.236-140.549 0.239-2.325 0.453-4.482 0.892-8.948 0.574-5.809 0.948-9.383 1.398-13.197 4.631-39.293 15.705-71.106 46.305-123.864 2.253-3.884 4.635-7.807 7.271-12.002 33.638-53.524 29.039-45.405 29.534-55.329 0.229-4.594-1.197-8.964-5.353-14.506-7.447-9.929-25.117-15.007-55.907-16.138-6.346-0.233-11.453-0.302-23.052-0.369-28.286-0.163-38.899-0.77-50.794-4.269-9.272-2.727-15.639-11.237-15.639-20.902 0-49.343 13.668-61.426 102.811-92.114 63.141-21.736 118.852-73.545 148.698-123.034-16.671-19.387-23.843-26.961-36.943-38.972-38.582-35.374-83.973-59.701-144.427-72.074-11.788-2.413-19.389-13.925-16.976-25.714s13.925-19.389 25.714-16.976c68.503 14.021 120.942 42.125 165.137 82.646 17.224 15.792 25.129 24.558 50.509 54.343 5.742 6.739 6.835 16.282 2.766 24.145-32.212 62.24-100.035 129.208-180.294 156.837-49.425 17.015-65.578 22.551-70.857 32.156 5.312 0.202 11.976 0.304 20.547 0.353z" />
<glyph unicode="&#xe92d;" glyph-name="stats-bars" d="M46.545 820.364h930.909v93.091h-930.909v-93.091zM0 820.364v93.091c0 25.706 20.839 46.545 46.545 46.545h930.909c25.706 0 46.545-20.839 46.545-46.545v-93.091c0-25.706-20.839-46.545-46.545-46.545h-930.909c-25.706 0-46.545 20.839-46.545 46.545zM46.545 541.091h930.909v93.091h-930.909v-93.091zM0 541.091v93.091c0 25.706 20.839 46.545 46.545 46.545h930.909c25.706 0 46.545-20.839 46.545-46.545v-93.091c0-25.706-20.839-46.545-46.545-46.545h-930.909c-25.706 0-46.545 20.839-46.545 46.545zM46.545 261.818h930.909v93.091h-930.909v-93.091zM0 261.818v93.091c0 25.706 20.839 46.545 46.545 46.545h930.909c25.706 0 46.545-20.839 46.545-46.545v-93.091c0-25.706-20.839-46.545-46.545-46.545h-930.909c-25.706 0-46.545 20.839-46.545 46.545zM46.545-17.455h930.909v93.091h-930.909v-93.091zM0-17.455v93.091c0 25.706 20.839 46.545 46.545 46.545h930.909c25.706 0 46.545-20.839 46.545-46.545v-93.091c0-25.706-20.839-46.545-46.545-46.545h-930.909c-25.706 0-46.545 20.839-46.545 46.545zM558.545 936.727v-116.364c0-12.853 10.42-23.273 23.273-23.273s23.273 10.42 23.273 23.273v116.364c0 12.853-10.42 23.273-23.273 23.273s-23.273-10.42-23.273-23.273zM791.273 657.455v-116.364c0-12.853 10.42-23.273 23.273-23.273s23.273 10.42 23.273 23.273v116.364c0 12.853-10.42 23.273-23.273 23.273s-23.273-10.42-23.273-23.273zM395.636 354.909v-116.364c0-12.853 10.42-23.273 23.273-23.273s23.273 10.42 23.273 23.273v116.364c0 12.853-10.42 23.273-23.273 23.273s-23.273-10.42-23.273-23.273zM581.818 98.909v-116.364c0-12.853 10.42-23.273 23.273-23.273s23.273 10.42 23.273 23.273v116.364c0 12.853-10.42 23.273-23.273 23.273s-23.273-10.42-23.273-23.273zM581.818 890.182h-558.545c-12.853 0-23.273-10.42-23.273-23.273s10.42-23.273 23.273-23.273h558.545c12.853 0 23.273 10.42 23.273 23.273s-10.42 23.273-23.273 23.273zM814.545 610.909h-768c-12.853 0-23.273-10.42-23.273-23.273s10.42-23.273 23.273-23.273h768c12.853 0 23.273 10.42 23.273 23.273s-10.42 23.273-23.273 23.273zM418.909 331.636h-395.636c-12.853 0-23.273-10.42-23.273-23.273s10.42-23.273 23.273-23.273h395.636c12.853 0 23.273 10.42 23.273 23.273s-10.42 23.273-23.273 23.273zM581.818 52.364h-558.545c-12.853 0-23.273-10.42-23.273-23.273s10.42-23.273 23.273-23.273h558.545c12.853 0 23.273 10.42 23.273 23.273s-10.42 23.273-23.273 23.273z" />
<glyph unicode="&#xe92e;" glyph-name="instagram-grid" d="M726.937 555.771c81.431-175.083-46.913-370.91-245.233-351.561-143.078 13.998-248.64 165.063-198.623 315.598 1.701 5.161 4.117 10.004 10.19 20.994 3.047 5.514 4.346 7.908 5.904 10.955 3.218 6.294 0.725 14.006-5.569 17.224s-14.006 0.725-17.224-5.569c-1.39-2.718-2.605-4.958-5.45-10.106-6.955-12.585-9.779-18.248-12.155-25.455-55.323-166.505 61.413-333.561 220.438-349.12 218.568-21.325 360.508 195.246 270.935 387.835-2.981 6.41-10.594 9.189-17.004 6.208s-9.189-10.594-6.208-17.004zM7.629 624.708v-500.685c10.102-98.692 86.78-174.569 185.047-183.702l641.85-0.055c96.596 9.857 173.442 88.5 183.728 179.971 0.080 17.564 0.080 17.564 0.080 82.1v422.37c0 7.069-5.731 12.8-12.8 12.8s-12.8-5.731-12.8-12.8v-503.040c-8.88-78.245-76.383-147.327-159.516-155.869l-639.357 0.067c-84.915 7.947-151.918 74.249-160.699 159.469l0.067 499.373c0 7.069-5.731 12.8-12.8 12.8s-12.8-5.731-12.8-12.8zM486.161 647.366c129.321 15.511 232.43-74.58 233.506-202.878 1.038-125.269-95.92-207.995-207.889-207.995-124.996 0-220.344 102.888-205.403 235.836 7.122 63.549 45.21 117.71 97.662 149.206 23.172 13.907 45.964 21.459 82.124 25.831zM489.221 621.949c-32.661-3.948-52.007-10.358-72.008-22.363-45.919-27.573-79.212-74.915-85.398-130.112-13.212-117.56 70.027-207.381 179.963-207.381 98.61 0 183.201 72.174 182.29 182.182-0.948 112.995-90.65 191.372-204.846 177.675zM641.453 408.882c22.315 92.003-48.195 170.898-136.045 164.811-58.981-4.080-95.872-33.011-114.33-76.509-35.377-83.635 22.201-173.947 98.4-184.629 68.469-9.619 137.105 35.069 151.976 96.328zM666.332 402.845c-18.028-74.266-99.119-127.064-180.411-115.643-92.236 12.93-160.619 120.19-118.414 219.967 22.064 51.998 67.058 87.283 136.134 92.062 104.768 7.259 189.177-87.188 162.692-196.386zM203.895 692.378h-25.6v241.408h25.6v-241.408zM178.295 692.378v241.408c0 17.067 25.6 17.067 25.6 0v-241.408c0-17.067-25.6-17.067-25.6 0zM121.207 705.178h149.026v237.756c0 7.069 5.731 12.8 12.8 12.8l550.261-0.056c47.445-4.437 94.41-27.629 125.888-59.088 50.481-50.434 60.967-115.85 59.168-276.582-0.078-7.013-5.786-12.657-12.799-12.657h-305.92l-2.963 0.348c-6.576 1.565-13.033 5.070-20.41 10.439-3.038 2.211-6.076 4.617-9.981 7.85-1.042 0.862-5.692 4.747-6.896 5.741-2.415 1.992-4.254 3.452-5.857 4.636-38.614 28.425-88.878 44.448-140.431 45.005-53.081-0.557-103.331-16.576-141.94-44.985-1.618-1.198-3.453-2.655-5.87-4.649-1.174-0.968-5.798-4.83-6.887-5.731-3.939-3.259-7.009-5.686-10.077-7.914-7.358-5.341-13.811-8.833-20.376-10.393l-2.959-0.347h-305.886c-6.924 0-12.594 5.507-12.795 12.428-4.396 151.31 7.901 225.583 59.109 276.79 10.169 10.206 22.537 19.873 36.276 28.347 8.528 5.26 19.52-0.875 19.52-10.894v-208.845zM295.834 930.133v-237.756c0-7.069-5.731-12.8-12.8-12.8h-174.626c-7.069 0-12.8 5.731-12.8 12.8v196.96c-4.353-3.527-8.398-7.161-12.078-10.854-43.054-43.054-55.132-109.673-51.964-245.532h291.626c2.515 0.879 5.913 2.827 10.088 5.857 2.548 1.85 5.239 3.978 8.798 6.922 1.022 0.845 5.664 4.722 6.913 5.753 2.733 2.255 4.885 3.964 6.959 5.499 43.064 31.687 98.539 49.372 155.622 49.987 58.594-0.615 114.085-18.304 157.143-50 2.055-1.518 4.216-3.233 6.954-5.492 1.282-1.058 5.955-4.961 6.929-5.768 3.531-2.923 6.196-5.034 8.722-6.872 4.187-3.047 7.59-5.004 10.105-5.886h291.442c1.025 144.15-9.44 203.229-51.781 245.53-27.38 27.362-68.855 47.843-108.985 51.652h-536.269zM895.334 725.043v105.813c0 6.947-5.657 12.612-12.578 12.612h-105.813c-6.921 0-12.578-5.665-12.578-12.612v-105.813c0-6.963 5.656-12.629 12.578-12.629h105.813c6.922 0 12.578 5.667 12.578 12.629zM920.934 725.043c0-21.091-17.107-38.229-38.178-38.229h-105.813c-21.071 0-38.178 17.139-38.178 38.229v105.813c0 21.078 17.111 38.212 38.178 38.212h105.813c21.067 0 38.178-17.135 38.178-38.212v-105.813z" />
<glyph unicode="&#xe92f;" glyph-name="posts-grid" d="M957.217-19.478c12.193 0 22.261 10.068 22.261 22.261v890.435c0 12.193-10.068 22.261-22.261 22.261h-890.435c-12.193 0-22.261-10.068-22.261-22.261v-890.435c0-12.193 10.068-22.261 22.261-22.261h890.435zM957.217-64h-890.435c-36.781 0-66.783 30.001-66.783 66.783v890.435c0 36.781 30.001 66.783 66.783 66.783h890.435c36.781 0 66.783-30.001 66.783-66.783v-890.435c0-36.781-30.001-66.783-66.783-66.783zM111.304 815.304c-18.442 0-33.391 14.95-33.391 33.391s14.95 33.391 33.391 33.391c18.442 0 33.391-14.95 33.391-33.391s-14.95-33.391-33.391-33.391zM111.304 859.826c-6.147 0-11.13-4.983-11.13-11.13s4.983-11.13 11.13-11.13c6.147 0 11.13 4.983 11.13 11.13s-4.983 11.13-11.13 11.13zM200.348 815.304c-18.442 0-33.391 14.95-33.391 33.391s14.95 33.391 33.391 33.391c18.442 0 33.391-14.95 33.391-33.391s-14.95-33.391-33.391-33.391zM200.348 859.826c-6.147 0-11.13-4.983-11.13-11.13s4.983-11.13 11.13-11.13c6.147 0 11.13 4.983 11.13 11.13s-4.983 11.13-11.13 11.13zM289.391 815.304c-18.442 0-33.391 14.95-33.391 33.391s14.95 33.391 33.391 33.391c18.442 0 33.391-14.95 33.391-33.391s-14.95-33.391-33.391-33.391zM289.391 859.826c-6.147 0-11.13-4.983-11.13-11.13s4.983-11.13 11.13-11.13c6.147 0 11.13 4.983 11.13 11.13s-4.983 11.13-11.13 11.13zM22.261 737.391h979.478v44.522h-979.478zM133.565 537.043h155.826v111.304h-155.826v-111.304zM333.913 692.87v-200.348h-244.87v200.348h244.87zM133.565 292.174h155.826v111.304h-155.826v-111.304zM333.913 448v-200.348h-244.87v200.348h244.87zM133.565 69.565h155.826v89.043h-155.826v-89.043zM333.913 203.13v-178.087h-244.87v178.087h244.87zM422.957 537.043h155.826v111.304h-155.826v-111.304zM623.304 692.87v-200.348h-244.87v200.348h244.87zM422.957 292.174h155.826v111.304h-155.826v-111.304zM623.304 448v-200.348h-244.87v200.348h244.87zM422.957 69.565h155.826v89.043h-155.826v-89.043zM623.304 203.13v-178.087h-244.87v178.087h244.87zM712.348 537.043h155.826v111.304h-155.826v-111.304zM912.696 692.87v-200.348h-244.87v200.348h244.87zM712.348 292.174h155.826v111.304h-155.826v-111.304zM912.696 448v-200.348h-244.87v200.348h244.87zM712.348 69.565h155.826v89.043h-155.826v-89.043zM912.696 203.13v-178.087h-244.87v178.087h244.87z" />
<glyph unicode="&#xe930;" glyph-name="posts-block" d="M957.217-19.478c12.193 0 22.261 10.068 22.261 22.261v890.435c0 12.193-10.068 22.261-22.261 22.261h-890.435c-12.193 0-22.261-10.068-22.261-22.261v-890.435c0-12.193 10.068-22.261 22.261-22.261h890.435zM957.217-64h-890.435c-36.781 0-66.783 30.001-66.783 66.783v890.435c0 36.781 30.001 66.783 66.783 66.783h890.435c36.781 0 66.783-30.001 66.783-66.783v-890.435c0-36.781-30.001-66.783-66.783-66.783zM111.304 815.304c-18.442 0-33.391 14.95-33.391 33.391s14.95 33.391 33.391 33.391c18.442 0 33.391-14.95 33.391-33.391s-14.95-33.391-33.391-33.391zM111.304 859.826c-6.147 0-11.13-4.983-11.13-11.13s4.983-11.13 11.13-11.13c6.147 0 11.13 4.983 11.13 11.13s-4.983 11.13-11.13 11.13zM200.348 815.304c-18.442 0-33.391 14.95-33.391 33.391s14.95 33.391 33.391 33.391c18.442 0 33.391-14.95 33.391-33.391s-14.95-33.391-33.391-33.391zM200.348 859.826c-6.147 0-11.13-4.983-11.13-11.13s4.983-11.13 11.13-11.13c6.147 0 11.13 4.983 11.13 11.13s-4.983 11.13-11.13 11.13zM289.391 815.304c-18.442 0-33.391 14.95-33.391 33.391s14.95 33.391 33.391 33.391c18.442 0 33.391-14.95 33.391-33.391s-14.95-33.391-33.391-33.391zM289.391 859.826c-6.147 0-11.13-4.983-11.13-11.13s4.983-11.13 11.13-11.13c6.147 0 11.13 4.983 11.13 11.13s-4.983 11.13-11.13 11.13zM22.261 737.391h979.478v44.522h-979.478zM289.391 69.565v578.783h-155.826v-578.783h155.826zM289.391 25.043h-155.826c-25.651 0-44.522 18.871-44.522 44.522v578.783c0 25.651 18.871 44.522 44.522 44.522h155.826c25.651 0 44.522-18.871 44.522-44.522v-578.783c0-25.651-18.871-44.522-44.522-44.522zM422.957 648.348v-155.826h467.478v155.826h-467.478zM400.696 692.87h512c12.294 0 22.261-9.967 22.261-22.261v-200.348c0-12.294-9.967-22.261-22.261-22.261h-512c-12.294 0-22.261 9.967-22.261 22.261v200.348c0 12.294 9.967 22.261 22.261 22.261zM422.957 69.565h467.478v111.304h-467.478v-111.304zM400.696 225.391h512c12.294 0 22.261-9.967 22.261-22.261v-155.826c0-12.294-9.967-22.261-22.261-22.261h-512c-12.294 0-22.261 9.967-22.261 22.261v155.826c0 12.294 9.967 22.261 22.261 22.261zM400.696 358.957h512c12.294 0 22.261 9.967 22.261 22.261s-9.967 22.261-22.261 22.261h-512c-12.294 0-22.261-9.967-22.261-22.261s9.967-22.261 22.261-22.261zM912.696 314.435h-512c-12.294 0-22.261-9.967-22.261-22.261s9.967-22.261 22.261-22.261h512c12.294 0 22.261 9.967 22.261 22.261s-9.967 22.261-22.261 22.261z" />
<glyph unicode="&#xe931;" glyph-name="posts-grid-masonry" d="M133.565 492.522h155.826v155.826h-155.826v-155.826zM111.304 692.87h200.348c12.294 0 22.261-9.967 22.261-22.261v-200.348c0-12.294-9.967-22.261-22.261-22.261h-200.348c-12.294 0-22.261 9.967-22.261 22.261v200.348c0 12.294 9.967 22.261 22.261 22.261zM133.565 292.174h155.826v66.783h-155.826v-66.783zM111.304 403.478h200.348c12.294 0 22.261-9.967 22.261-22.261v-111.304c0-12.294-9.967-22.261-22.261-22.261h-200.348c-12.294 0-22.261 9.967-22.261 22.261v111.304c0 12.294 9.967 22.261 22.261 22.261zM133.565 69.565h155.826v89.043h-155.826v-89.043zM111.304 203.13h200.348c12.294 0 22.261-9.967 22.261-22.261v-133.565c0-12.294-9.967-22.261-22.261-22.261h-200.348c-12.294 0-22.261 9.967-22.261 22.261v133.565c0 12.294 9.967 22.261 22.261 22.261zM422.957 492.522h155.826v155.826h-155.826v-155.826zM400.696 692.87h200.348c12.294 0 22.261-9.967 22.261-22.261v-200.348c0-12.294-9.967-22.261-22.261-22.261h-200.348c-12.294 0-22.261 9.967-22.261 22.261v200.348c0 12.294 9.967 22.261 22.261 22.261zM422.957 247.652h155.826v111.304h-155.826v-111.304zM400.696 403.478h200.348c12.294 0 22.261-9.967 22.261-22.261v-155.826c0-12.294-9.967-22.261-22.261-22.261h-200.348c-12.294 0-22.261 9.967-22.261 22.261v155.826c0 12.294 9.967 22.261 22.261 22.261zM422.957 69.565h155.826v44.522h-155.826v-44.522zM400.696 158.609h200.348c12.294 0 22.261-9.967 22.261-22.261v-89.043c0-12.294-9.967-22.261-22.261-22.261h-200.348c-12.294 0-22.261 9.967-22.261 22.261v89.043c0 12.294 9.967 22.261 22.261 22.261zM712.348 603.826h155.826v44.522h-155.826v-44.522zM690.087 692.87h200.348c12.294 0 22.261-9.967 22.261-22.261v-89.043c0-12.294-9.967-22.261-22.261-22.261h-200.348c-12.294 0-22.261 9.967-22.261 22.261v89.043c0 12.294 9.967 22.261 22.261 22.261zM712.348 269.913h155.826v200.348h-155.826v-200.348zM690.087 514.783h200.348c12.294 0 22.261-9.967 22.261-22.261v-244.87c0-12.294-9.967-22.261-22.261-22.261h-200.348c-12.294 0-22.261 9.967-22.261 22.261v244.87c0 12.294 9.967 22.261 22.261 22.261zM712.348 69.565h155.826v66.783h-155.826v-66.783zM690.087 180.87h200.348c12.294 0 22.261-9.967 22.261-22.261v-111.304c0-12.294-9.967-22.261-22.261-22.261h-200.348c-12.294 0-22.261 9.967-22.261 22.261v111.304c0 12.294 9.967 22.261 22.261 22.261zM957.217-19.478c12.193 0 22.261 10.068 22.261 22.261v890.435c0 12.193-10.068 22.261-22.261 22.261h-890.435c-12.193 0-22.261-10.068-22.261-22.261v-890.435c0-12.193 10.068-22.261 22.261-22.261h890.435zM957.217-64h-890.435c-36.781 0-66.783 30.001-66.783 66.783v890.435c0 36.781 30.001 66.783 66.783 66.783h890.435c36.781 0 66.783-30.001 66.783-66.783v-890.435c0-36.781-30.001-66.783-66.783-66.783zM111.304 815.304c-18.442 0-33.391 14.95-33.391 33.391s14.95 33.391 33.391 33.391c18.442 0 33.391-14.95 33.391-33.391s-14.95-33.391-33.391-33.391zM111.304 859.826c-6.147 0-11.13-4.983-11.13-11.13s4.983-11.13 11.13-11.13c6.147 0 11.13 4.983 11.13 11.13s-4.983 11.13-11.13 11.13zM200.348 815.304c-18.442 0-33.391 14.95-33.391 33.391s14.95 33.391 33.391 33.391c18.442 0 33.391-14.95 33.391-33.391s-14.95-33.391-33.391-33.391zM200.348 859.826c-6.147 0-11.13-4.983-11.13-11.13s4.983-11.13 11.13-11.13c6.147 0 11.13 4.983 11.13 11.13s-4.983 11.13-11.13 11.13zM289.391 815.304c-18.442 0-33.391 14.95-33.391 33.391s14.95 33.391 33.391 33.391c18.442 0 33.391-14.95 33.391-33.391s-14.95-33.391-33.391-33.391zM289.391 859.826c-6.147 0-11.13-4.983-11.13-11.13s4.983-11.13 11.13-11.13c6.147 0 11.13 4.983 11.13 11.13s-4.983 11.13-11.13 11.13zM22.261 737.391h979.478v44.522h-979.478z" />
<glyph unicode="&#xe932;" glyph-name="buttons" d="M833.229 425.882c-4.811 19.436-22.1 33.617-42.702 33.617-13.668 0-25.878-6.242-33.935-16.031l-0.060-0.076c-7.892 12.211-21.437 20.178-36.843 20.178-14.535 0-27.414-7.092-35.364-18.005l-0.087-0.125c-8.080 9.895-20.28 16.163-33.944 16.163-12.465 0-23.712-5.216-31.677-13.585l-0.017-0.018-11.571 46.899c-5.255 18.924-22.33 32.583-42.596 32.583-24.375 0-44.134-19.76-44.134-44.134 0-3.345 0.372-6.604 1.077-9.736l-0.056 0.295 23.45-95.642c-8.155 10.217-20.608 16.706-34.576 16.706-24.375 0-44.134-19.76-44.134-44.134 0-12.004 4.792-22.889 12.568-30.845l-0.008 0.008 111.616-126.771 19.456-79.258c1.139-4.506 5.157-7.787 9.942-7.787 0.105 0 0.209 0.002 0.313 0.005h2.443c4.499 1.144 7.773 5.159 7.773 9.938 0 0.871-0.109 1.716-0.313 2.523l0.015-0.071-88.576 360.141c-0.259 1.315-0.408 2.827-0.408 4.374 0 13.064 10.59 23.654 23.654 23.654 10.606 0 19.581-6.98 22.584-16.597l0.045-0.168 20.48-82.637s0 0 0 0l8.294-33.894c0.366-1.371 0.965-2.568 1.759-3.609l-0.018 0.025c0.646-0.789 1.388-1.466 2.216-2.025l0.036-0.023h0.819c0.738-0.392 1.592-0.71 2.492-0.909l0.068-0.013h4.608c4.499 1.144 7.773 5.159 7.773 9.938 0 0.871-0.109 1.716-0.313 2.523l0.015-0.071-8.397 34.304c-0.239 1.263-0.376 2.715-0.376 4.2 0 13.064 10.59 23.654 23.654 23.654 10.692 0 19.727-7.094 22.656-16.832l0.043-0.167 10.854-44.032c0.347-1.328 0.911-2.491 1.658-3.51l-0.020 0.029 0.614-2.15c0.544-0.614 1.148-1.153 1.81-1.617l0.033-0.022 1.126-0.614 2.253-0.819h4.71c4.499 1.144 7.773 5.159 7.773 9.938 0 0.871-0.109 1.716-0.313 2.523l0.015-0.071-7.168 29.696c-0.432 1.691-0.68 3.633-0.68 5.632 0 13.072 10.597 23.669 23.669 23.669 11.072 0 20.369-7.603 22.954-17.873l0.035-0.163 5.222-19.866v-0.614l5.837-23.654c0.996-4.695 5.106-8.167 10.028-8.167 5.655 0 10.24 4.585 10.24 10.24 0 1.013-0.147 1.991-0.421 2.915l0.018-0.072-5.837 24.269c-0.239 1.263-0.376 2.715-0.376 4.2 0 13.064 10.59 23.654 23.654 23.654 10.692 0 19.727-7.094 22.656-16.832l0.043-0.167 42.598-174.080c1.139-4.506 5.157-7.787 9.942-7.787 0.105 0 0.209 0.002 0.313 0.005h2.443c4.499 1.144 7.773 5.159 7.773 9.938 0 0.871-0.109 1.716-0.313 2.523l0.015-0.071zM579.686 236.134l-85.811 97.485c-2.439 3.661-3.891 8.16-3.891 12.998 0 13.064 10.59 23.654 23.654 23.654 6.021 0 11.516-2.249 15.692-5.954l-0.025 0.021 26.112-28.979zM921.6 584.294v-244.019c0-5.655-4.585-10.24-10.24-10.24s-10.24 4.585-10.24 10.24v0 244.019c0 12.781-10.361 23.142-23.142 23.142v0h-579.277c-12.781 0-23.142-10.361-23.142-23.142v0-244.019c0-12.781 10.361-23.142 23.142-23.142v0h143.36c5.655 0 10.24-4.585 10.24-10.24s-4.585-10.24-10.24-10.24v0h-143.36c-24.092 0-43.622 19.53-43.622 43.622v0 244.019c0 24.092 19.53 43.622 43.622 43.622v0h579.584c23.96-0.174 43.315-19.637 43.315-43.621 0 0 0-0.001 0-0.001v0zM214.016 604.774c0-5.655-4.585-10.24-10.24-10.24v0h-91.136c-5.655 0-10.24 4.585-10.24 10.24s4.585 10.24 10.24 10.24v0h91.546c5.497-0.112 9.923-4.539 10.035-10.025v-0.011zM276.48 688.026v91.648c0 5.655 4.585 10.24 10.24 10.24s10.24-4.585 10.24-10.24v0-91.546c0-0.015 0-0.033 0-0.051 0-5.655-4.585-10.24-10.24-10.24-5.637 0-10.211 4.556-10.24 10.186v0.003zM253.030 639.795c-1.851-1.84-4.402-2.978-7.219-2.978s-5.368 1.137-7.22 2.978v0l-64.512 64.819c-1.53 1.779-2.462 4.111-2.462 6.661 0 5.655 4.585 10.24 10.24 10.24 2.55 0 4.882-0.932 6.674-2.474l-0.013 0.011 64.717-64.717c1.871-1.856 3.029-4.428 3.029-7.271 0-2.792-1.117-5.322-2.929-7.169l0.002 0.002z" />
<glyph unicode="&#xe933;" glyph-name="posts-carousel" d="M972.8 29.918c0 0-921.6 0-921.6 0-28.228 0-51.2 22.972-51.2 51.2 0 0 0 716.817 0 716.817 0 28.245 22.972 51.2 51.2 51.2 0 0 921.6 0 921.6 0 28.228 0 51.2-22.955 51.2-51.2 0 0 0-136.533 0-136.533s0-341.333 0-341.333c0 0 0-238.95 0-238.95 0-28.228-22.972-51.2-51.2-51.2zM989.867 644.335c0 0-136.533 0-136.533 0s0-307.2 0-307.2c0 0 136.533 0 136.533 0s0 307.2 0 307.2zM989.867 303.002c0 0-153.6 0-153.6 0-9.421 0-17.067 7.646-17.067 17.067 0 0 0 341.333 0 341.333 0 9.421 7.646 17.067 17.067 17.067 0 0 153.6 0 153.6 0s0 119.467 0 119.467c0 9.421-7.663 17.067-17.067 17.067 0 0-921.6 0-921.6 0-9.404 0-17.067-7.646-17.067-17.067 0 0 0-119.467 0-119.467s153.6 0 153.6 0c9.421 0 17.067-7.646 17.067-17.067 0 0 0-341.333 0-341.333 0-9.421-7.646-17.067-17.067-17.067 0 0-153.6 0-153.6 0s0-221.884 0-221.884c0-9.404 7.663-17.067 17.067-17.067 0 0 921.6 0 921.6 0 9.404 0 17.067 7.663 17.067 17.067 0 0 0 221.884 0 221.884zM34.85 644.335c0 0 0-307.2 0-307.2s135.817 0 135.817 0c0 0 0 307.2 0 307.2s-135.817 0-135.817 0zM836.267 183.535c0 0-0.717 0-0.717 0-9.421 0-17.050 7.629-17.050 17.067 0 9.421 7.629 17.067 17.050 17.067 9.438 0 17.425-7.646 17.425-17.067 0-9.438-7.287-17.067-16.708-17.067zM748.373 311.091c-0.751-1.229-1.997-1.911-3.004-2.884-0.137-0.137-0.273-0.256-0.41-0.393-1.451-1.297-2.884-2.406-4.676-3.14-1.229-0.58-2.577-0.768-3.942-1.041-0.853-0.119-1.587-0.631-2.475-0.631 0 0-0.717 0-0.717 0s-443.017 0-443.017 0c-2.082 0-4.062 0.495-5.939 1.195-0.546 0.205-1.024 0.461-1.553 0.717-1.348 0.666-2.577 1.502-3.721 2.509-0.375 0.324-0.768 0.597-1.126 0.973-1.28 1.348-2.406 2.867-3.209 4.625-0.017 0.051 0 0.102-0.017 0.171-0.939 2.099-1.502 4.42-1.502 6.878 0 0 0 341.333 0 341.333 0 9.421 7.646 17.067 17.067 17.067 0 0 443.017 0 443.017 0 9.438 0 17.084-7.646 17.084-17.067 0 0 0-338.859 0-338.859 0.58-3.942 0.307-7.97-1.86-11.452zM706.253 337.135c0 0-94.31 188.604-94.31 188.604s-103.031-147.183-103.031-147.183c-2.714-3.874-6.895-6.451-11.554-7.117-4.659-0.683-9.404 0.614-13.090 3.567 0 0-72.567 58.078-72.567 58.078s-83.951-95.949-83.951-95.949c0 0 378.505 0 378.505 0zM307.2 644.335c0 0 0-278.852 0-278.852s89.566 102.366 89.566 102.366c6.007 6.861 16.367 7.782 23.501 2.082 0 0 71.117-56.9 71.117-56.9s109.039 155.75 109.039 155.75c3.447 4.932 9.25 7.714 15.223 7.236 6.007-0.444 11.332-4.011 14.029-9.387 0 0 86.426-172.851 86.426-172.851s0 250.556 0 250.556c0 0-408.9 0-408.9 0zM375.467 541.935c-18.825 0-34.133 15.309-34.133 34.133s15.309 34.133 34.133 34.133c18.825 0 34.133-15.309 34.133-34.133s-15.309-34.133-34.133-34.133zM289.417 217.668c9.438 0 17.425-7.646 17.425-17.067 0-9.438-7.287-17.067-16.708-17.067 0 0-0.717 0-0.717 0-9.421 0-17.050 7.629-17.050 17.067 0 9.421 7.629 17.067 17.050 17.067zM391.834 217.668c9.421 0 17.425-7.646 17.425-17.067 0-9.438-7.305-17.067-16.725-17.067 0 0-0.7 0-0.7 0-9.438 0-17.084 7.629-17.084 17.067 0 9.421 7.646 17.067 17.084 17.067zM512 234.735c18.825 0 34.133-15.309 34.133-34.133s-15.309-34.133-34.133-34.133c-18.825 0-34.133 15.309-34.133 34.133s15.309 34.133 34.133 34.133zM630.767 217.668c9.421 0 17.425-7.646 17.425-17.067 0-9.438-7.305-17.067-16.725-17.067 0 0-0.7 0-0.7 0-9.438 0-17.084 7.629-17.084 17.067 0 9.421 7.646 17.067 17.084 17.067zM733.15 217.668c9.438 0 17.425-7.646 17.425-17.067 0-9.438-7.287-17.067-16.708-17.067 0 0-0.717 0-0.717 0-9.421 0-17.050 7.629-17.050 17.067 0 9.421 7.629 17.067 17.050 17.067zM187.733 183.535c0 0-0.717 0-0.717 0-9.421 0-17.067 7.629-17.067 17.067 0 9.421 7.646 17.067 17.067 17.067 9.438 0 17.425-7.646 17.425-17.067 0-9.438-7.287-17.067-16.708-17.067z" />
<glyph unicode="&#xe934;" glyph-name="pricing-table" d="M-3.151 870.203v-842.831h1031.877v842.831h-1031.877zM1005.095 846.572v-97.674h-984.615v97.674h984.615zM20.48 49.428v675.84h984.615v-674.265h-984.615zM836.529 808.763h23.631v-23.631h-23.631v23.631zM776.665 808.763h23.631v-23.631h-23.631v23.631zM896.394 808.763h23.631v-23.631h-23.631v23.631zM96.098 808.763h606.523v-23.631h-606.523v23.631zM340.283 121.895h345.009v530.905h-345.009v-530.905zM363.914 629.169h297.748v-483.643h-297.748v483.643zM820.775 418.068c-3.151 3.151-4.726 6.302-4.726 11.028h-23.631c0-11.028 4.726-20.48 12.603-28.357 4.726-4.726 11.028-7.877 18.905-9.452v-18.905h23.631v18.905c6.302 1.575 12.603 4.726 18.905 9.452 7.877 7.877 12.603 17.329 12.603 28.357s-4.726 20.48-12.603 28.357c-7.877 6.302-18.905 11.028-29.932 11.028-6.302 0-11.028 1.575-14.178 4.726s-4.726 6.302-4.726 11.028c0 3.151 1.575 7.877 4.726 11.028 7.877 6.302 22.055 6.302 28.357 0 3.151-3.151 4.726-6.302 4.726-11.028h23.631c0 11.028-4.726 20.48-12.603 28.357-4.726 4.726-11.028 7.877-18.905 9.452v18.905h-23.631v-18.905c-6.302-1.575-12.603-4.726-18.905-9.452-7.877-7.877-12.603-17.329-12.603-28.357s4.726-20.48 12.603-28.357c7.877-6.302 18.905-11.028 29.932-11.028 6.302 0 11.028-1.575 14.178-4.726s4.726-6.302 4.726-11.028c0-3.151-1.575-7.877-4.726-11.028-6.302-6.302-20.48-6.302-28.357 0zM723.102 173.883h223.705v425.354h-223.705v-425.354zM746.732 575.606h176.443v-378.092h-176.443v378.092zM779.815 263.68h110.277v-23.631h-110.277v23.631zM779.815 320.394h110.277v-23.631h-110.277v23.631zM173.292 418.068c-3.151 3.151-4.726 6.302-4.726 11.028h-23.631c0-11.028 4.726-20.48 12.603-28.357 4.726-4.726 11.028-7.877 18.905-9.452v-18.905h23.631v18.905c6.302 1.575 12.603 4.726 18.905 9.452 7.877 7.877 12.603 17.329 12.603 28.357s-4.726 20.48-12.603 28.357c-7.877 6.302-18.905 11.028-29.932 11.028-4.726 0-11.028 1.575-14.178 4.726s-4.726 6.302-4.726 11.028c0 3.151 1.575 7.877 4.726 11.028 7.877 6.302 22.055 6.302 28.357 0 3.151-3.151 4.726-6.302 4.726-11.028h23.631c0 11.028-4.726 20.48-12.603 28.357-4.726 4.726-11.028 7.877-18.905 9.452v18.905h-23.631v-18.905c-6.302-1.575-12.603-4.726-18.905-9.452-7.877-7.877-12.603-17.329-12.603-28.357s4.726-20.48 12.603-28.357c7.877-6.302 18.905-11.028 29.932-11.028 6.302 0 11.028-1.575 14.178-4.726s4.726-6.302 4.726-11.028c0-3.151-1.575-7.877-4.726-11.028-6.302-6.302-20.48-6.302-28.357 0zM77.194 173.883h223.705v425.354h-223.705v-425.354zM100.825 575.606h176.443v-378.092h-176.443v378.092zM133.908 263.68h110.277v-23.631h-110.277v23.631zM133.908 320.394h110.277v-23.631h-110.277v23.631zM478.917 388.135c-7.877 6.302-11.028 14.178-11.028 22.055h-23.631c0-15.754 6.302-29.932 18.905-40.96 9.452-7.877 20.48-12.603 33.083-15.754v-36.234h23.631v36.234c12.603 1.575 23.631 7.877 33.083 15.754 12.603 11.028 18.905 25.206 18.905 40.96s-6.302 29.932-18.905 40.96c-12.603 11.028-28.357 15.754-44.111 15.754-11.028 0-20.48 3.151-28.357 9.452s-11.028 14.178-11.028 22.055 4.726 15.754 11.028 22.055c15.754 12.603 42.535 12.603 58.289 0 7.877-6.302 11.028-14.178 11.028-22.055h23.631c0 15.754-6.302 29.932-18.905 40.96-9.452 7.877-20.48 12.603-33.083 14.178v36.234h-23.631v-36.234c-12.603-1.575-23.631-6.302-33.083-14.178-12.603-11.028-18.905-25.206-18.905-40.96s6.302-29.932 18.905-40.96c12.603-11.028 28.357-15.754 44.111-15.754 11.028 0 22.055-3.151 28.357-9.452 7.877-6.302 11.028-14.178 11.028-22.055s-4.726-15.754-11.028-22.055c-15.754-12.603-44.111-12.603-58.289 0zM401.723 206.966h211.102v-23.631h-211.102v23.631zM401.723 263.68h211.102v-23.631h-211.102v23.631z" />
<glyph unicode="&#xe935;" glyph-name="tab-slider1" d="M76.8 25.6h189.867v42.667h-189.867c-12.8 0-23.467 10.667-23.467 23.467v710.4c0 12.8 10.667 23.467 23.467 23.467h320v-125.867c0-12.8 8.533-21.333 21.333-21.333h509.867v42.667h-108.8v128c0 12.8-8.533 21.333-21.333 21.333h-125.867v-42.667h104.533v-104.533h-147.2v125.867c0 12.8-8.533 21.333-21.333 21.333h-145.067v-42.667h123.733v-104.533h-147.2v125.867c0 12.8-8.533 21.333-21.333 21.333h-341.333c-36.267 0-66.133-29.867-66.133-66.133v-710.4c0-38.4 29.867-68.267 66.133-68.267zM947.2 870.4h-85.333v-42.667h85.333c12.8 0 23.467-10.667 23.467-23.467v-710.4c0-12.8-10.667-23.467-23.467-23.467h-637.867v-42.667h637.867c36.267 0 66.133 29.867 66.133 66.133v708.267c0 38.4-29.867 68.267-66.133 68.267zM187.733 202.667h650.667v-42.667h-650.667v42.667zM458.667 298.667h377.6v-42.667h-377.6v42.667zM187.733 298.667h228.267v-42.667h-228.267v42.667zM187.733 392.533h462.933v-42.667h-462.933v42.667z" />
<glyph unicode="&#xe936;" glyph-name="tabs5" d="M963.881 46.988h-903.763c-29.504 0-53.512 24.008-53.512 53.512v694.999c0 29.504 24.008 53.512 53.512 53.512h903.763c29.504 0 53.512-24.008 53.512-53.512v-694.999c0-29.504-24.008-53.512-53.512-53.512zM60.119 821.265c-14.204 0-25.765-11.561-25.765-25.765v-694.999c0-14.204 11.561-25.765 25.765-25.765h903.763c14.204 0 25.765 11.561 25.765 25.765v694.999c0 14.204-11.561 25.765-25.765 25.765h-903.763zM1003.52 697.724h-223.516c-7.663 0-13.874 6.21-13.874 13.874v123.541c0 7.663 6.21 13.874 13.874 13.874h183.877c29.504 0 53.512-24.008 53.512-53.512v-83.902c0-7.663-6.21-13.874-13.874-13.874zM793.877 725.471h195.769v70.028c0 14.204-11.561 25.765-25.765 25.765h-170.004v-95.794zM780.004 697.724h-223.516c-7.663 0-13.874 6.21-13.874 13.874v123.541c0 7.663 6.21 13.874 13.874 13.874h223.516c7.663 0 13.874-6.21 13.874-13.874v-123.541c0-7.663-6.217-13.874-13.874-13.874zM570.355 725.471h195.769v95.794h-195.769v-95.794zM556.481 697.724h-223.516c-7.663 0-13.874 6.21-13.874 13.874v123.541c0 7.663 6.21 13.874 13.874 13.874h223.516c7.663 0 13.874-6.21 13.874-13.874v-123.541c0-7.663-6.21-13.874-13.874-13.874zM346.839 725.471h195.769v95.794h-195.769v-95.794zM502.090 372.356h-385.777c-7.663 0-13.874 6.21-13.874 13.874s6.21 13.874 13.874 13.874h385.777c7.663 0 13.874-6.21 13.874-13.874s-6.21-13.874-13.874-13.874zM907.687 372.356h-338.211c-7.663 0-13.874 6.21-13.874 13.874s6.21 13.874 13.874 13.874h338.211c7.663 0 13.874-6.21 13.874-13.874s-6.21-13.874-13.874-13.874zM362.034 265.761h-245.72c-7.663 0-13.874 6.21-13.874 13.874s6.21 13.874 13.874 13.874h245.72c7.663 0 13.874-6.21 13.874-13.874s-6.21-13.874-13.874-13.874zM907.687 265.761h-487.516c-7.663 0-13.874 6.21-13.874 13.874s6.21 13.874 13.874 13.874h487.516c7.663 0 13.874-6.21 13.874-13.874s-6.21-13.874-13.874-13.874zM648.754 159.166h-532.44c-7.663 0-13.874 6.21-13.874 13.874s6.21 13.874 13.874 13.874h532.44c7.663 0 13.874-6.21 13.874-13.874s-6.21-13.874-13.874-13.874zM907.687 159.166h-200.796c-7.663 0-13.874 6.21-13.874 13.874s6.21 13.874 13.874 13.874h200.796c7.663 0 13.874-6.21 13.874-13.874s-6.21-13.874-13.874-13.874zM502.090 585.546h-385.777c-7.663 0-13.874 6.21-13.874 13.874s6.21 13.874 13.874 13.874h385.777c7.663 0 13.874-6.21 13.874-13.874s-6.21-13.874-13.874-13.874zM907.687 585.546h-338.211c-7.663 0-13.874 6.21-13.874 13.874s6.21 13.874 13.874 13.874h338.211c7.663 0 13.874-6.21 13.874-13.874s-6.21-13.874-13.874-13.874zM362.034 478.951h-245.72c-7.663 0-13.874 6.21-13.874 13.874s6.21 13.874 13.874 13.874h245.72c7.663 0 13.874-6.21 13.874-13.874s-6.21-13.874-13.874-13.874zM907.687 478.951h-487.516c-7.663 0-13.874 6.21-13.874 13.874s6.21 13.874 13.874 13.874h487.516c7.663 0 13.874-6.21 13.874-13.874s-6.21-13.874-13.874-13.874zM243.659 752.637h-133.873c-7.663 0-13.874 6.21-13.874 13.874s6.21 13.874 13.874 13.874h133.873c7.663 0 13.874-6.21 13.874-13.874s-6.21-13.874-13.874-13.874z" />
<glyph unicode="&#xe937;" glyph-name="tabs2" d="M972.8 29.884c0 0-921.6 0-921.6 0-28.228 0-51.2 22.972-51.2 51.2 0 0 0 716.817 0 716.817 0 28.228 22.972 51.2 51.2 51.2 0 0 921.6 0 921.6 0 28.228 0 51.2-22.972 51.2-51.2 0 0 0-716.817 0-716.817 0-28.228-22.972-51.2-51.2-51.2zM580.267 814.967c0 0-170.667 0-170.667 0s0-102.4 0-102.4c0 0 170.667 0 170.667 0s0 102.4 0 102.4zM785.067 814.967c0 0-170.667 0-170.667 0s0-102.4 0-102.4c0 0 170.667 0 170.667 0s0 102.4 0 102.4zM989.867 797.901c0 9.421-7.663 17.067-17.067 17.067 0 0-153.6 0-153.6 0s0-102.4 0-102.4c0 0 170.667 0 170.667 0s0 85.333 0 85.333zM989.867 678.434c0 0-597.333 0-597.333 0-9.421 0-17.067 7.629-17.067 17.067 0 0 0 119.467 0 119.467s-324.267 0-324.267 0c-9.404 0-17.067-7.646-17.067-17.067 0 0 0-716.817 0-716.817 0-9.421 7.663-17.067 17.067-17.067 0 0 921.6 0 921.6 0 9.404 0 17.067 7.646 17.067 17.067 0 0 0 597.35 0 597.35zM290.133 746.701c0 0-170.667 0-170.667 0-9.421 0-17.067 7.629-17.067 17.067s7.646 17.067 17.067 17.067c0 0 170.667 0 170.667 0 9.421 0 17.067-7.629 17.067-17.067s-7.646-17.067-17.067-17.067z" />
<glyph unicode="&#xe938;" glyph-name="faq" d="M16 864v-832h992v832h-992zM976 832v-96h-928v96h928zM48 64v640h928v-640h-928zM80 800h32v-32h-32v32zM144 800h32v-32h-32v32zM208 800h32v-32h-32v32zM704 576c-58.816 0-115.472-21.952-159.232-60.864-34.384 93.536-123.184 156.864-224.768 156.864-132.336 0-240-107.664-240-240s107.664-240 240-240c58.816 0 115.472 21.952 159.232 60.864 34.384-93.536 123.184-156.864 224.768-156.864 132.336 0 240 107.664 240 240s-107.664 240-240 240zM320 224c-114.688 0-208 93.312-208 208s93.312 208 208 208c96 0 178.992-65.168 201.808-158.48 4.112-16.8 6.192-33.456 6.192-49.52 0-51.072-18.912-100.304-53.264-138.624v0c-39.52-44.096-95.936-69.376-154.736-69.376zM704 128c-93.28 0-174.272 61.536-199.728 150.624 36 43.168 55.728 97.296 55.728 153.376 0 15.872-1.744 32.192-5.168 48.592 39.152 40.4 93.072 63.408 149.168 63.408 114.688 0 208-93.312 208-208s-93.312-208-208-208zM320 592c-52.944 0-96-43.056-96-96v-96c0-52.944 43.056-96 96-96 12.624 0 24.672 2.512 35.728 6.96 9.088-14.16 20.928-26.64 35.392-36.272l17.744 26.624c-10.544 7.040-19.232 16.096-25.92 26.384 20.208 17.616 33.056 43.456 33.056 72.304v96c0 52.944-43.056 96-96 96zM384 400c0-15.056-5.44-28.736-14.176-39.68-1.088 5.68-1.824 11.456-1.824 17.36v6.32h-32v-6.32c0-12.96 2.224-25.536 6.048-37.536-6.912-2.544-14.272-4.144-22.048-4.144-35.296 0-64 28.704-64 64v96c0 35.296 28.704 64 64 64s64-28.704 64-64v-96zM731.76 480h-55.536l-54.992-176h-29.232v-32h19.232l-18.512-59.232 30.544-9.536 21.504 68.768h118.48l21.488-68.768 30.544 9.536-18.512 59.232h19.232v32h-29.232l-55.008 176zM654.768 304l45.008 144h8.464l45.008-144h-98.48z" />
</font>
</defs>
</svg>
